<?xml version="1.0" standalone="no"?>
<!DOCTYPE svg PUBLIC "-//W3C//DTD SVG 1.1//EN" "http://www.w3.org/Graphics/SVG/1.1/DTD/svg11.dtd" >
<svg>
<metadata>
Created by FontForge 20090622 at Thu Aug 20 04:15:18 2015
 By deploy user
Typeface &#194;&#169; The Monotype Corporation plc. Data &#194;&#169; The Monotype Corporation plc / Type Solutions Inc. 1990-91 All Rights Reserved
</metadata>
<defs>
<font id="CenturyGothic-BoldItalic" horiz-adv-x="1229" >
  <font-face 
    font-family="Century Gothic"
    font-weight="700"
    font-style="italic"
    font-stretch="normal"
    units-per-em="2048"
    panose-1="2 11 6 2 2 2 2 9 2 4"
    ascent="1638"
    descent="-410"
    x-height="1088"
    cap-height="1471"
    bbox="-401 -628 2494 2297"
    underline-thickness="184"
    underline-position="-96"
    slope="-7.59999"
    unicode-range="U+0020-U+F108"
  />
<missing-glyph horiz-adv-x="1536" 
d="M256 0v1280h1024v-1280h-1024zM288 32h960v1216h-960v-1216z" />
    <glyph glyph-name=".notdef" horiz-adv-x="1536" 
d="M256 0v1280h1024v-1280h-1024zM288 32h960v1216h-960v-1216z" />
    <glyph glyph-name=".null" horiz-adv-x="0" 
 />
    <glyph glyph-name="nonmarkingreturn" horiz-adv-x="573" 
 />
    <glyph glyph-name="space" unicode=" " horiz-adv-x="573" 
 />
    <glyph glyph-name="exclam" unicode="!" horiz-adv-x="573" 
d="M260 1508h275l-151 -1074h-275zM214 308q69 0 118.5 -49t49.5 -119q0 -69 -49.5 -118.5t-118.5 -49.5q-70 0 -119 49.5t-49 118.5q0 70 49 119t119 49z" />
    <glyph glyph-name="quotedbl" unicode="&#x22;" horiz-adv-x="737" 
d="M706 1004h-156l-55 504h267zM295 1004h-156l-55 504h267z" />
    <glyph glyph-name="numbersign" unicode="#" 
d="M1110 678v-199h-231l-71 -479h-201l70 479h-191l-70 -479h-200l70 479h-225v199h256l30 188h-223v199h251l65 443h195l-62 -443h191l65 443h201l-65 -443h202v-199h-231l-26 -188h200zM736 866h-194l-26 -188h189z" />
    <glyph glyph-name="dollar" unicode="$" horiz-adv-x="1147" 
d="M619 1607h175l-18 -119q90 -24 156 -69t138 -134l-192 -150q-70 78 -127 107t-116 29q-75 0 -128.5 -46.5t-53.5 -105.5q0 -31 10 -54q15 -30 46 -56q13 -12 119 -78q155 -97 209 -143q94 -80 139 -168.5t45 -193.5q0 -118 -58 -222.5t-154.5 -164.5t-245.5 -73l-37 -263
h-174l36 263q-142 27 -233.5 99t-169.5 222l240 121q108 -210 291 -210q104 0 172 62t68 149q0 70 -46 129q-46 58 -214 157q-182 108 -245 202q-64 93 -64 204q0 144 107.5 267t309.5 134z" />
    <glyph glyph-name="percent" unicode="%" horiz-adv-x="1761" 
d="M1465 1536h201l-1399 -1636h-202l1197 1405q-69 -13 -137.5 -20t-136.5 -7q-95 0 -204 12q13 -55 13 -95q0 -100 -53 -193t-141.5 -143.5t-195.5 -50.5q-137 0 -224 85.5t-87 217.5q0 179 147 302q112 95 231 95q43 0 169 -24q221 -42 371 -42q118 0 231 23.5t220 70.5z
M471 1331q-82 0 -138.5 -59t-56.5 -146q0 -61 41.5 -104t103.5 -43q78 0 135 59.5t57 143.5q0 67 -39.5 108t-102.5 41zM1348 660q131 0 217.5 -87.5t86.5 -221.5q0 -101 -52.5 -193.5t-141.5 -143.5t-195 -51q-148 0 -229.5 92t-81.5 216q0 96 54.5 189.5t147 146.5
t194.5 53zM1325 488q-80 0 -136 -58t-56 -143q0 -69 42 -111t106 -42q75 0 131.5 61.5t56.5 144.5q0 68 -39.5 108t-104.5 40z" />
    <glyph glyph-name="ampersand" unicode="&#x26;" horiz-adv-x="1393" 
d="M1133 588l146 -198q-55 -48 -116 -91l-58 -43l62 -76q96 -118 142 -180h-327q-53 54 -99 111q-106 -71 -225 -109.5t-224 -38.5q-148 0 -258.5 106t-110.5 250q0 122 75.5 226.5t283.5 225.5q-54 104 -71.5 163t-17.5 119q0 148 113.5 253t279.5 105q140 0 231.5 -89.5
t91.5 -223.5q0 -109 -64 -209.5t-209 -200.5q98 -146 170 -232q107 71 185 132zM645 897q151 103 151 189q0 29 -25 50.5t-64 21.5q-48 0 -81 -31.5t-33 -72.5q0 -69 52 -157zM556 550q-78 -42 -156 -100q-40 -29 -60 -66q-15 -28 -15 -57q0 -50 35 -82.5t92 -32.5
q49 0 121 26q17 7 154 75q-19 23 -56 76z" />
    <glyph glyph-name="quotesingle" unicode="'" horiz-adv-x="451" 
d="M357 1004h-156l-55 504h266z" />
    <glyph glyph-name="parenleft" unicode="(" horiz-adv-x="778" 
d="M614 1536h347q-510 -489 -510 -1250q0 -196 49.5 -351.5t182.5 -360.5h-345q-93 182 -132.5 343t-39.5 342q0 234 51 469t144 423.5t253 384.5z" />
    <glyph glyph-name="parenright" unicode=")" horiz-adv-x="778" 
d="M123 -426h-347q510 489 510 1250q0 196 -49.5 351.5t-182.5 360.5h345q93 -183 132.5 -343.5t39.5 -342.5q0 -234 -51 -468.5t-144 -423t-253 -384.5z" />
    <glyph glyph-name="asterisk" unicode="*" horiz-adv-x="901" 
d="M386 1508h254l-79 -301l226 213l117 -220l-305 -78l305 -87l-132 -217l-218 217l77 -300h-245l77 300l-223 -217l-133 217l306 87l-306 85l133 223l223 -223z" />
    <glyph glyph-name="plus" unicode="+" 
d="M490 860v375h250v-375h374v-250h-374v-374h-250v374h-375v250h375z" />
    <glyph glyph-name="comma" unicode="," horiz-adv-x="573" 
d="M147 267l207 -123l-276 -360l-129 78z" />
    <glyph glyph-name="hyphen" unicode="-" horiz-adv-x="860" 
d="M156 663h539l-31 -243h-540z" />
    <glyph glyph-name="hyphen" unicode="&#xad;" horiz-adv-x="860" 
d="M156 663h539l-31 -243h-540z" />
    <glyph glyph-name="period" unicode="." horiz-adv-x="573" 
d="M205 308q69 0 118.5 -49t49.5 -119q0 -69 -49.5 -118.5t-118.5 -49.5q-70 0 -119 49.5t-49 118.5q0 70 49 119t119 49z" />
    <glyph glyph-name="slash" unicode="/" horiz-adv-x="942" 
d="M44 -262l661 1775h194l-662 -1775h-193z" />
    <glyph glyph-name="zero" unicode="0" horiz-adv-x="1147" 
d="M669 1508q171 0 286 -149.5t115 -436.5q0 -295 -92.5 -526.5t-227.5 -332t-289 -100.5q-110 0 -196.5 60t-138.5 179.5t-52 311.5q0 322 92 570q83 220 217.5 322t285.5 102zM643 1248q-61 0 -113 -51q-76 -76 -135 -273.5t-59 -410.5q0 -176 41 -238.5t113 -62.5
q65 0 134 65t126.5 256t57.5 418q0 160 -46 228.5t-119 68.5z" />
    <glyph glyph-name="one" unicode="1" horiz-adv-x="1147" 
d="M412 1471h435l-198 -1471h-270l164 1214h-218z" />
    <glyph glyph-name="two" unicode="2" horiz-adv-x="1147" 
d="M422 1021h-268q6 149 66 260.5t160 169t227 57.5q184 0 304 -118.5t120 -294.5q0 -140 -94 -303.5t-461 -540.5h495l-33 -251h-909l25 193q379 385 492 515q152 177 188 261q29 65 29 126q0 69 -45.5 114.5t-111.5 45.5q-70 0 -117 -52.5t-67 -181.5z" />
    <glyph glyph-name="three" unicode="3" horiz-adv-x="1147" 
d="M474 1116h-254q22 180 141 286t291 106q107 0 193 -48.5t137.5 -137.5t51.5 -184q0 -96 -56.5 -187t-171.5 -161q199 -122 199 -340q0 -201 -147 -344t-358 -143q-192 0 -317.5 133t-125.5 353h260q11 -112 53 -163q58 -69 152 -69q99 0 157 74t58 176q0 58 -31.5 108.5
t-83 77t-157.5 32.5l33 230q127 0 193.5 57.5t66.5 145.5q0 60 -37.5 98t-94.5 38q-58 0 -99.5 -36t-52.5 -102z" />
    <glyph glyph-name="four" unicode="4" horiz-adv-x="1147" 
d="M795 1508h245l-129 -986h145l-32 -239h-145l-38 -283h-251l36 283h-618l32 239zM720 1041l-390 -519h326z" />
    <glyph glyph-name="five" unicode="5" horiz-adv-x="1147" 
d="M406 1471h703l-34 -251h-475l-84 -286q64 31 135 31q166 0 267 -109.5t101 -308.5q0 -262 -147.5 -423t-367.5 -161q-155 0 -276 78t-196 233l242 110q63 -95 119.5 -130.5t123.5 -35.5q97 0 161 76.5t64 203.5q0 95 -49 153t-118 58q-94 0 -151 -88l-245 68z" />
    <glyph glyph-name="six" unicode="6" horiz-adv-x="1147" 
d="M675 1508l211 -142l-354 -494q53 14 96 14q169 0 289 -125t120 -310q0 -209 -141 -348.5t-360 -139.5q-199 0 -331 132.5t-132 324.5q0 77 20 149q30 103 82 198q93 169 192 308zM559 651q-94 0 -161 -66t-67 -159q0 -87 61.5 -147.5t151.5 -60.5q95 0 159.5 65.5
t64.5 161.5q0 88 -59.5 147t-149.5 59z" />
    <glyph glyph-name="seven" unicode="7" horiz-adv-x="1147" 
d="M237 1471h918l-16 -180l-743 -1328l-225 124l639 1129h-605z" />
    <glyph glyph-name="eight" unicode="8" horiz-adv-x="1147" 
d="M789 792q110 -42 172 -132.5t62 -215.5q0 -138 -64.5 -247.5t-184 -171.5t-272.5 -62q-200 0 -330.5 124t-130.5 298q0 92 40 182.5t105.5 151t174.5 100.5q-71 42 -107 97q-58 88 -58 191q0 104 57 198t162.5 148.5t229.5 54.5q181 0 297 -108.5t116 -256.5
q0 -110 -66.5 -202t-202.5 -149zM639 1251q-75 0 -125 -49.5t-50 -119.5q0 -65 39.5 -107t104.5 -42q72 0 122 49t50 120q0 69 -38.5 109t-102.5 40zM556 678q-100 0 -170.5 -74.5t-70.5 -185.5q0 -86 59 -144.5t148 -58.5q100 0 168 70.5t68 172.5q0 93 -60 156.5
t-142 63.5z" />
    <glyph glyph-name="nine" unicode="9" horiz-adv-x="1147" 
d="M483 -37l-211 141l354 494q-53 -13 -96 -13q-169 0 -289 125t-120 310q0 209 141 348.5t360 139.5q199 0 331 -132.5t132 -324.5q0 -77 -20 -149q-30 -104 -82 -198q-93 -170 -192 -309zM599 820q94 0 161 66t67 158q0 88 -61.5 148t-151.5 60q-95 0 -159.5 -65.5
t-64.5 -161.5q0 -87 59.5 -146t149.5 -59z" />
    <glyph glyph-name="colon" unicode=":" horiz-adv-x="573" 
d="M319 1116q69 0 118.5 -49t49.5 -118t-49.5 -118t-118.5 -49q-70 0 -119 49t-49 118q0 70 48.5 118.5t119.5 48.5zM205 308q69 0 118.5 -49t49.5 -119q0 -69 -49.5 -118.5t-118.5 -49.5q-70 0 -119 49.5t-49 118.5q0 70 49 119t119 49z" />
    <glyph glyph-name="semicolon" unicode=";" horiz-adv-x="573" 
d="M320 1116q69 0 118.5 -49t49.5 -118t-49.5 -118t-118.5 -49q-70 0 -119 49t-49 118q0 70 48.5 118.5t119.5 48.5zM147 267l207 -123l-276 -360l-129 78z" />
    <glyph glyph-name="semicolon" unicode="&#x37e;" horiz-adv-x="573" 
d="M320 1116q69 0 118.5 -49t49.5 -118t-49.5 -118t-118.5 -49q-70 0 -119 49t-49 118q0 70 48.5 118.5t119.5 48.5zM147 267l207 -123l-276 -360l-129 78z" />
    <glyph glyph-name="less" unicode="&#x3c;" 
d="M1114 366v-250l-999 508v222l999 508v-249l-712 -370z" />
    <glyph glyph-name="equal" unicode="=" 
d="M115 1074h999v-250h-999v250zM115 646h999v-250h-999v250z" />
    <glyph glyph-name="greater" unicode="&#x3e;" 
d="M115 1105v249l999 -508v-222l-999 -508v250l713 369z" />
    <glyph glyph-name="question" unicode="?" horiz-adv-x="1147" 
d="M347 1098h-261q14 126 84 226t187 156t263 56q193 0 315 -115.5t122 -276.5q0 -204 -242 -382q-110 -80 -137.5 -111.5t-47 -83.5t-26.5 -131h-257q5 181 60.5 287.5t203.5 206.5q119 80 150.5 123.5t31.5 88.5q0 58 -54.5 102t-144.5 44q-199 0 -247 -190zM425 308
q69 0 118 -49t49 -119q0 -69 -49 -118.5t-118 -49.5q-70 0 -119 49.5t-49 118.5q0 70 49 119t119 49z" />
    <glyph glyph-name="at" unicode="@" horiz-adv-x="1515" 
d="M1252 301h191q-109 -135 -193.5 -196.5t-196.5 -96.5t-233 -35q-214 0 -397 104.5t-287 284.5t-104 392q0 214 104.5 398t285 286t396.5 102q300 0 506.5 -193t206.5 -449q0 -188 -86.5 -323.5t-235.5 -211.5q-114 -58 -191 -58q-58 0 -93 31q-27 22 -29 76
q-88 -97 -214 -97q-142 0 -236.5 101t-94.5 269q0 185 116 330.5t308 145.5q79 0 141 -32.5t106 -98.5l21 105h196l-99 -583q-10 -62 -10 -70q0 -11 10.5 -20.5t24.5 -9.5q35 0 94.5 48.5t97 140t37.5 200.5q0 162 -71 286t-204 195t-305 71q-181 0 -325 -80.5t-227 -228
t-83 -324.5q0 -181 84 -328t235 -229t338 -82q110 0 208 41t208 139zM763 526q87 0 144 71.5t57 161.5q0 78 -46.5 127.5t-116.5 49.5q-82 0 -143 -67.5t-61 -163.5q0 -81 46 -130t120 -49z" />
    <glyph glyph-name="A" unicode="A" horiz-adv-x="1515" 
d="M770 1471h233l366 -1471h-268l-78 313h-581l-169 -313h-297zM956 573l-118 483l-259 -483h377z" />
    <glyph glyph-name="B" unicode="B" horiz-adv-x="1188" 
d="M266 1471h230q210 0 312 -45t164.5 -140t62.5 -205q0 -92 -44 -173.5t-127 -136.5q197 -137 197 -364q0 -118 -62.5 -216t-154.5 -144.5t-266 -46.5h-508zM465 887h50q112 0 152 16.5t68 61.5t28 100q0 51 -25 88t-65.5 50t-164.5 13zM383 261l166 -6q125 0 182 49
t57 134q0 62 -35.5 111t-94.5 69t-226 21z" />
    <glyph glyph-name="C" unicode="C" horiz-adv-x="1597" 
d="M1524 1281l-201 -186q-65 75 -159 115.5t-204 40.5q-154 0 -295 -79t-219.5 -209t-78.5 -277q0 -200 138 -332.5t354 -132.5q231 0 400 134l163 -215q-251 -177 -581 -177q-232 0 -394.5 88t-261 258.5t-98.5 369.5q0 213 116.5 408.5t315.5 308t434 112.5
q330 0 571 -227z" />
    <glyph glyph-name="D" unicode="D" horiz-adv-x="1434" 
d="M267 1471h234q329 0 489.5 -77.5t261 -243.5t100.5 -383q0 -223 -106.5 -409.5t-268.5 -272t-450 -85.5h-457zM510 1212l-127 -955h91q210 0 304 35q132 50 212 171t80 299q0 146 -56.5 244.5t-159.5 152t-274 53.5h-70z" />
    <glyph glyph-name="E" unicode="E" horiz-adv-x="1065" 
d="M245 1471h799l-34 -261h-520l-42 -304h522l-33 -259h-522l-52 -390h525l-35 -257h-801z" />
    <glyph glyph-name="F" unicode="F" horiz-adv-x="983" 
d="M247 1471h725l-33 -261h-447l-42 -304h448l-33 -259h-449l-84 -647h-278z" />
    <glyph glyph-name="G" unicode="G" horiz-adv-x="1720" 
d="M1541 1197l-230 -149q-100 114 -193 158.5t-211 44.5q-255 0 -415 -205q-127 -163 -127 -362q0 -196 130.5 -329t321.5 -133q142 0 258.5 68.5t190.5 205.5h-459l34 261h744q-16 -365 -228.5 -579.5t-541.5 -214.5q-358 0 -563 248q-165 199 -165 474q0 335 241.5 579
t575.5 244q124 0 242 -36t213 -101t182 -174z" />
    <glyph glyph-name="H" unicode="H" horiz-adv-x="1393" 
d="M266 1471h277l-74 -555h503l75 555h278l-200 -1471h-276l91 668h-507l-90 -668h-275z" />
    <glyph glyph-name="I" unicode="I" horiz-adv-x="573" 
d="M256 1471h270l-203 -1471h-265z" />
    <glyph glyph-name="J" unicode="J" horiz-adv-x="983" 
d="M643 1471h276l-138 -1038q-28 -206 -70 -291.5t-122 -132t-187 -46.5q-133 0 -253.5 78t-195.5 222l219 133q58 -90 115 -130.5t101 -40.5q47 0 73 36t39 157z" />
    <glyph glyph-name="K" unicode="K" horiz-adv-x="1270" 
d="M270 1471h277l-68 -500l474 500h342l-641 -673l507 -798h-309l-415 654l-89 -654h-274z" />
    <glyph glyph-name="L" unicode="L" horiz-adv-x="901" 
d="M271 1471h277l-166 -1218h457l-32 -253h-735z" />
    <glyph glyph-name="M" unicode="M" horiz-adv-x="1843" 
d="M376 1471h250l249 -1025l508 1025h238l20 -1471h-258l-12 880l-436 -880h-211l-224 924l-235 -924h-264z" />
    <glyph glyph-name="N" unicode="N" horiz-adv-x="1515" 
d="M266 1471h242l533 -1000l135 1000h269l-198 -1471h-236l-540 1011l-135 -1011h-265z" />
    <glyph glyph-name="O" unicode="O" horiz-adv-x="1720" 
d="M945 1508q303 0 500 -195t197 -495q0 -230 -116.5 -433.5t-310 -312.5t-444.5 -109q-314 0 -501.5 186t-187.5 490q0 345 224 593q250 276 639 276zM935 1247q-158 0 -288.5 -76.5t-210.5 -220t-80 -296.5q0 -181 111 -307t319 -126q241 0 409.5 170t168.5 413
q0 201 -118.5 322t-310.5 121z" />
    <glyph glyph-name="P" unicode="P" horiz-adv-x="1147" 
d="M269 1471h259q236 0 333 -41q120 -51 182 -142t62 -213q0 -134 -72.5 -242.5t-194.5 -158t-406 -53.5l-84 -621h-277zM465 881q226 1 295 47t69 137q0 51 -27 86t-80 49t-210 14z" />
    <glyph glyph-name="Q" unicode="Q" horiz-adv-x="1720" 
d="M1408 224l258 -293h-350l-117 132q-196 -100 -427 -100q-315 0 -502.5 186t-187.5 490q0 239 114.5 440t310 315t431.5 114q309 0 506.5 -195t197.5 -495q0 -162 -62.5 -320.5t-171.5 -273.5zM1228 427q136 161 136 377q0 202 -118.5 322.5t-314.5 120.5q-155 0 -285 -77
t-210 -220.5t-80 -295.5q0 -182 111.5 -307.5t317.5 -125.5q127 0 232 46l-220 247h354z" />
    <glyph glyph-name="R" unicode="R" horiz-adv-x="1188" 
d="M281 1471h257q238 0 335 -41q121 -51 182.5 -141.5t61.5 -214.5q0 -153 -91 -262.5t-275 -152.5l321 -659h-286l-314 642h-26l-85 -642h-276zM478 883q227 1 295.5 46.5t68.5 136.5q0 52 -27.5 87t-79.5 49t-211 14z" />
    <glyph glyph-name="S" unicode="S" horiz-adv-x="1065" 
d="M1017 1266l-201 -178q-124 160 -231 160q-53 0 -88 -31.5t-35 -75.5q0 -41 32 -91t194 -221q86 -91 113 -129q65 -88 93.5 -164.5t28.5 -155.5q0 -177 -126 -297t-323 -120q-300 0 -489 285l212 171q128 -195 277 -195q71 0 119.5 46t48.5 111q0 51 -29.5 104t-168.5 200
q-147 155 -193 234q-62 107 -62 210q0 136 89 244q112 135 302 135q261 0 437 -242z" />
    <glyph glyph-name="T" unicode="T" horiz-adv-x="860" 
d="M79 1471h898l-32 -262h-313l-159 -1209h-274l159 1209h-313z" />
    <glyph glyph-name="U" unicode="U" horiz-adv-x="1311" 
d="M260 1471h275l-122 -908q-16 -119 -16 -168q0 -83 51.5 -129.5t149.5 -46.5q79 0 138 35q44 26 70.5 86.5t51.5 240.5l123 890h278l-120 -878q-37 -271 -97 -389t-173.5 -179.5t-276.5 -61.5q-220 0 -343 117t-123 320q0 88 24 260z" />
    <glyph glyph-name="V" unicode="V" horiz-adv-x="1434" 
d="M105 1471h270l263 -1062l569 1062h297l-787 -1471h-247z" />
    <glyph glyph-name="W" unicode="W" horiz-adv-x="1843" 
d="M132 1471h252l84 -953l451 953h208l175 -928l327 928h267l-520 -1471h-226l-185 974l-461 -974h-241z" />
    <glyph glyph-name="X" unicode="X" horiz-adv-x="1393" 
d="M250 1471h284l207 -455l321 455h320l-518 -728l338 -743h-286l-224 499l-354 -499h-322l552 772z" />
    <glyph glyph-name="Y" unicode="Y" horiz-adv-x="1270" 
d="M66 1471h279l230 -589l418 589h317l-628 -883l-79 -588h-276l81 588z" />
    <glyph glyph-name="Z" unicode="Z" horiz-adv-x="1024" 
d="M183 1471h831l-584 -1215h463l-34 -256h-841l585 1212h-456z" />
    <glyph glyph-name="bracketleft" unicode="[" horiz-adv-x="655" 
d="M316 1508h437l-35 -255h-161l-195 -1397h161l-34 -254h-439z" />
    <glyph glyph-name="backslash" unicode="\" horiz-adv-x="1311" 
d="M1082 -262h-193l-661 1775h193z" />
    <glyph glyph-name="bracketright" unicode="]" horiz-adv-x="655" 
d="M311 -398h-437l35 255h161l196 1397h-162l35 254h438z" />
    <glyph glyph-name="asciicircum" unicode="^" 
d="M497 1471h232l390 -1105h-242l-262 748l-263 -748h-243z" />
    <glyph glyph-name="underscore" unicode="_" horiz-adv-x="1024" 
d="M-12 -154h1048v-102h-1048v102z" />
    <glyph glyph-name="grave" unicode="`" horiz-adv-x="860" 
d="M216 1677h322l182 -392h-195z" />
    <glyph glyph-name="a" unicode="a" horiz-adv-x="1352" 
d="M984 1088h267l-142 -1088h-264l15 117q-87 -81 -162.5 -113t-169.5 -32q-216 0 -343.5 159t-127.5 370q0 161 81 306.5t217.5 227t285.5 81.5q100 0 184.5 -46t139.5 -134zM590 210q98 0 171 44t122.5 138t49.5 192q0 129 -74.5 207.5t-196.5 78.5q-142 0 -241 -105
t-99 -271q0 -128 75 -206t193 -78z" />
    <glyph glyph-name="b" unicode="b" horiz-adv-x="1352" 
d="M310 0h-267l197 1508h264l-70 -537q87 82 162.5 113.5t169.5 31.5q216 0 343.5 -159t127.5 -369q0 -161 -81 -307t-217.5 -227.5t-284.5 -81.5q-101 0 -185.5 46t-138.5 134zM704 879q-98 0 -171 -44.5t-122.5 -138.5t-49.5 -192q0 -129 74.5 -207.5t196.5 -78.5
q142 0 241 105t99 271q0 128 -75 206.5t-193 78.5z" />
    <glyph glyph-name="c" unicode="c" horiz-adv-x="1311" 
d="M1187 863l-226 -123q-96 122 -258 122q-109 0 -193 -46.5t-134 -134.5t-50 -186q0 -126 79 -202t217 -76q191 0 293 129l210 -148q-89 -106 -221.5 -166t-295.5 -60q-254 0 -400.5 140t-146.5 370q0 263 181 448.5t466 185.5q321 0 479 -253z" />
    <glyph glyph-name="d" unicode="d" horiz-adv-x="1352" 
d="M1039 1508h267l-197 -1508h-264l15 117q-87 -81 -162.5 -113t-169.5 -32q-216 0 -343.5 159t-127.5 370q0 161 81 306.5t217.5 227t285.5 81.5q100 0 184.5 -46t139.5 -134zM590 210q98 0 171 44t122.5 138t49.5 192q0 129 -74.5 207.5t-196.5 78.5q-142 0 -241 -105
t-99 -271q0 -128 75 -206t193 -78z" />
    <glyph glyph-name="e" unicode="e" horiz-adv-x="1311" 
d="M861 319l235 -122q-79 -104 -209.5 -164.5t-289.5 -60.5q-249 0 -392.5 140t-143.5 372q0 265 179.5 448.5t433.5 183.5q153 0 272.5 -67t188.5 -195t69 -278q0 -47 -10 -110h-868q4 -113 74.5 -180t194.5 -67q150 0 266 100zM929 662q-30 100 -100 151.5t-169 51.5
q-98 0 -177 -53t-120 -150h566z" />
    <glyph glyph-name="f" unicode="f" horiz-adv-x="573" 
d="M56 1088h116q28 213 62.5 291.5t93.5 117.5t146 39q113 0 209 -65l-30 -218q-55 49 -111 49q-42 0 -61.5 -30.5t-41.5 -183.5h166l-29 -230h-166l-120 -858h-266l117 858h-114z" />
    <glyph glyph-name="g" unicode="g" horiz-adv-x="1352" 
d="M984 1088h267l-119 -871q-35 -258 -72 -342q-58 -130 -195 -215.5t-344 -85.5q-172 0 -299.5 66.5t-190.5 171.5l229 120q103 -109 268 -109q96 0 166 35t109 94.5t55 176.5q-145 -129 -329 -129q-128 0 -236.5 64.5t-170.5 181.5t-62 260q0 161 81 302.5t220.5 224.5
t291.5 83q92 0 167 -36t147 -121zM667 864q-145 0 -244.5 -102t-99.5 -251q0 -121 74 -194t198 -73q93 0 172 45t125 129t46 181q0 114 -76 189.5t-195 75.5z" />
    <glyph glyph-name="h" unicode="h" 
d="M250 1508h265l-72 -530q153 138 318 138q141 0 231 -89.5t90 -225.5q0 -64 -17 -191l-81 -610h-265l79 595q12 92 12 138q0 66 -37.5 101.5t-106.5 35.5q-67 0 -134 -46.5t-103 -129t-66 -309.5l-51 -385h-266z" />
    <glyph glyph-name="i" unicode="i" horiz-adv-x="491" 
d="M324 1533q68 0 116.5 -48.5t48.5 -116.5t-48.5 -116.5t-116.5 -48.5t-116.5 48.5t-48.5 116.5t48.5 116.5t116.5 48.5zM158 1088h264l-146 -1088h-266z" />
    <glyph glyph-name="j" unicode="j" horiz-adv-x="532" 
d="M348 1533q69 0 117 -48.5t48 -116.5t-48 -116.5t-117 -48.5q-68 0 -116.5 48.5t-48.5 116.5t48.5 116.5t116.5 48.5zM178 1088h266l-130 -963q-37 -272 -75.5 -364t-108.5 -139.5t-161 -47.5q-70 0 -164 39l32 240q45 -29 83 -29q45 0 68 38q33 55 56 228z" />
    <glyph glyph-name="k" unicode="k" horiz-adv-x="1188" 
d="M246 1508h263l-107 -799l430 379h366l-550 -485l481 -603h-320l-430 536l-71 -536h-262z" />
    <glyph glyph-name="l" unicode="l" horiz-adv-x="491" 
d="M214 1508h266l-200 -1508h-266z" />
    <glyph glyph-name="m" unicode="m" horiz-adv-x="1925" 
d="M187 1088h268l-16 -118q145 146 325 146q73 0 136.5 -25t103 -64t67.5 -109q75 97 176 147.5t210 50.5q137 0 227 -91.5t90 -237.5q0 -55 -10 -137l-86 -650h-265l73 559q15 113 15 150q0 77 -38.5 117t-108.5 40q-68 0 -137.5 -48.5t-106 -129t-61.5 -276.5l-54 -412
h-267l79 592q10 72 10 123q0 71 -41 112.5t-108 41.5q-64 0 -131.5 -44.5t-105 -121t-58.5 -234.5l-61 -469h-267z" />
    <glyph glyph-name="n" unicode="n" 
d="M193 1088h266l-16 -110q153 138 318 138q141 0 231 -89.5t90 -225.5q0 -64 -17 -191l-81 -610h-265l79 595q12 92 12 138q0 66 -37.5 101.5t-106.5 35.5q-67 0 -134 -46.5t-103 -129t-66 -309.5l-51 -385h-266z" />
    <glyph glyph-name="o" unicode="o" horiz-adv-x="1311" 
d="M684 1116q145 0 263.5 -67t184.5 -190t66 -276q0 -254 -181 -432.5t-448 -178.5q-232 0 -370 140.5t-138 367.5q0 274 187 455t436 181zM665 863q-164 0 -251.5 -117.5t-87.5 -254.5q0 -122 71.5 -196.5t190.5 -74.5q169 0 257.5 113.5t88.5 259.5q0 120 -75 195t-194 75
z" />
    <glyph glyph-name="p" unicode="p" horiz-adv-x="1352" 
d="M258 -398h-267l195 1486h263l-15 -117q87 82 162.5 113.5t169.5 31.5q217 0 344 -159t127 -369q0 -161 -81 -307t-217.5 -227.5t-284.5 -81.5q-100 0 -185 46t-139 134zM704 879q-97 0 -170.5 -44.5t-123 -138.5t-49.5 -192q0 -129 74.5 -207.5t196.5 -78.5
q142 0 241 105t99 271q0 128 -75 206.5t-193 78.5z" />
    <glyph glyph-name="q" unicode="q" horiz-adv-x="1352" 
d="M984 1088h267l-194 -1486h-264l67 515q-87 -81 -162.5 -113t-169.5 -32q-216 0 -343.5 159t-127.5 370q0 161 81 306.5t217.5 227t285.5 81.5q100 0 184.5 -46t139.5 -134zM590 210q98 0 171 44t122.5 138t49.5 192q0 129 -74.5 207.5t-196.5 78.5q-142 0 -241 -105
t-99 -271q0 -128 75 -206t193 -78z" />
    <glyph glyph-name="r" unicode="r" horiz-adv-x="655" 
d="M126 1088h238l-19 -148q107 176 257 176q36 0 75 -19l-96 -241q-30 9 -44 9q-77 0 -137.5 -90.5t-95.5 -365.5l-52 -409h-268z" />
    <glyph glyph-name="s" unicode="s" horiz-adv-x="901" 
d="M790 936l-127 -204q-49 73 -103 107.5t-101 34.5q-36 0 -61 -20t-25 -45q0 -24 20 -48q19 -24 115 -93q153 -110 201.5 -188.5t48.5 -170.5q0 -121 -99.5 -229t-288.5 -108q-109 0 -198.5 44t-199.5 161l165 192q112 -148 245 -148q53 0 84.5 25.5t31.5 60.5
q0 28 -24 57.5t-131 105.5q-124 88 -171 151q-66 88 -66 186q0 137 103.5 223t244.5 86q99 0 188 -47t148 -133z" />
    <glyph glyph-name="t" unicode="t" horiz-adv-x="614" 
d="M249 1492h266l-56 -404h169l-32 -230h-168l-117 -858h-267l118 858h-131l31 230h131z" />
    <glyph glyph-name="u" unicode="u" 
d="M195 1088h264l-73 -556q-12 -92 -12 -138q0 -72 50 -121t130 -49q103 0 158.5 63t81.5 256l75 545h264l-79 -585q-27 -198 -90.5 -306.5t-168.5 -166.5t-247 -58q-200 0 -318 115.5t-118 298.5q0 112 25 288z" />
    <glyph glyph-name="v" unicode="v" horiz-adv-x="1147" 
d="M55 1088h262l170 -605l349 605h290l-631 -1088h-129z" />
    <glyph glyph-name="w" unicode="w" horiz-adv-x="1638" 
d="M52 1088h257l150 -583l317 583h105l152 -583l315 583h284l-591 -1088h-129l-148 575l-310 -575h-127z" />
    <glyph glyph-name="x" unicode="x" horiz-adv-x="1147" 
d="M60 1088h294l190 -309l226 309h311l-395 -541l335 -547h-294l-202 329l-244 -329h-311l414 560z" />
    <glyph glyph-name="y" unicode="y" horiz-adv-x="1188" 
d="M45 1088h262l212 -646l372 646h288l-855 -1486h-282l309 546z" />
    <glyph glyph-name="z" unicode="z" horiz-adv-x="942" 
d="M87 1088h862l-557 -842h510l-34 -246h-939l555 839h-429z" />
    <glyph glyph-name="braceleft" unicode="{" horiz-adv-x="696" 
d="M-16 390l34 240q91 4 140.5 37.5t83.5 114.5q25 60 45.5 208.5t36.5 206.5q28 105 79.5 161t154.5 90q69 23 209 23h53l-34 -240q-113 0 -148 -13.5t-52 -42.5q-12 -21 -35 -149q-40 -232 -58 -282q-30 -82 -73.5 -133.5t-126.5 -101.5q132 -83 132 -258q0 -74 -19 -258
q-10 -93 -10 -117q0 -50 47 -73q30 -15 140 -15l-34 -239h-52q-153 0 -223.5 28t-107.5 85t-37 146q0 69 21 206q19 123 19 192q0 86 -50 140q-36 38 -135 44z" />
    <glyph glyph-name="bar" unicode="|" 
d="M536 1508h158v-1906h-158v1906z" />
    <glyph glyph-name="braceright" unicode="}" horiz-adv-x="696" 
d="M627 630l-34 -240q-91 -5 -140.5 -38.5t-83.5 -113.5q-26 -60 -46.5 -208.5t-35.5 -207.5q-28 -104 -80 -160.5t-155 -90.5q-69 -22 -208 -22h-53l34 239q113 0 148 14t52 42q12 21 34 149q41 232 59 283q30 82 73 133.5t127 100.5q-133 84 -133 258q0 74 20 258
q10 93 10 118q0 49 -48 73q-29 14 -140 14l34 240h53q153 0 223 -28.5t107 -85t37 -145.5q0 -70 -20 -207q-19 -123 -19 -192q0 -85 50 -139q36 -39 135 -44z" />
    <glyph glyph-name="asciitilde" unicode="~" 
d="M100 564v319q152 74 250 74q64 0 140.5 -21.5t203.5 -82.5q83 -41 109 -48q35 -10 69 -10q111 0 258 113v-322q-126 -72 -247 -72q-66 0 -133 18t-218 85q-96 42 -128.5 50.5t-65.5 8.5q-50 0 -101 -22t-137 -90z" />
    <glyph glyph-name="Adieresis" unicode="&#xc4;" horiz-adv-x="1515" 
d="M770 1471h233l366 -1471h-268l-78 313h-581l-169 -313h-297zM956 573l-118 483l-259 -483h377zM707 1865q52 0 87.5 -35t35.5 -84q0 -69 -48 -118t-117 -49q-56 0 -90 34.5t-34 90.5q0 64 49.5 112.5t116.5 48.5zM1150 1865q52 0 87.5 -35t35.5 -84q0 -69 -48 -118
t-117 -49q-56 0 -90 34.5t-34 90.5q0 64 49.5 112.5t116.5 48.5z" />
    <glyph glyph-name="Aring" unicode="&#xc5;" horiz-adv-x="1515" 
d="M770 1471h233l366 -1471h-268l-78 313h-581l-169 -313h-297zM956 573l-118 483l-259 -483h377zM962 2060q81 0 133.5 -53t52.5 -140q0 -99 -77 -176t-176 -77q-82 0 -135.5 55t-53.5 138q0 104 75.5 178.5t180.5 74.5zM943 1932q-40 0 -69.5 -30t-29.5 -71q0 -34 20 -55
t51 -21q37 0 66 30t29 70q0 34 -19.5 55.5t-47.5 21.5z" />
    <glyph glyph-name="Ccedilla" unicode="&#xc7;" horiz-adv-x="1597" 
d="M1524 1281l-201 -186q-65 75 -159 115.5t-204 40.5q-154 0 -295 -79t-219.5 -209t-78.5 -277q0 -200 138 -332.5t354 -132.5q231 0 400 134l163 -215q-251 -177 -581 -177q-232 0 -394.5 88t-261 258.5t-98.5 369.5q0 213 116.5 408.5t315.5 308t434 112.5
q330 0 571 -227zM716 14h169l-18 -44q60 -16 91 -52.5t31 -81.5q0 -86 -77.5 -152t-206.5 -66q-108 0 -216 47l54 129q71 -24 138 -24q53 0 82.5 23t29.5 57q0 24 -16.5 36t-62.5 12l-51 -2z" />
    <glyph glyph-name="Eacute" unicode="&#xc9;" horiz-adv-x="1065" 
d="M245 1471h799l-34 -261h-520l-42 -304h522l-33 -259h-522l-52 -390h525l-35 -257h-801zM777 2006h323l-421 -391h-196z" />
    <glyph glyph-name="Ntilde" unicode="&#xd1;" horiz-adv-x="1515" 
d="M266 1471h242l533 -1000l135 1000h269l-198 -1471h-236l-540 1011l-135 -1011h-265zM574 1618l-86 165q89 57 150.5 77t123.5 20q47 0 122 -21q119 -33 167 -33q85 0 179 51l83 -155q-102 -72 -140 -86q-61 -22 -122 -22t-148 27q-71 22 -89 26q-24 4 -54 4
q-98 0 -186 -53z" />
    <glyph glyph-name="Odieresis" unicode="&#xd6;" horiz-adv-x="1720" 
d="M945 1508q303 0 500 -195t197 -495q0 -230 -116.5 -433.5t-310 -312.5t-444.5 -109q-314 0 -501.5 186t-187.5 490q0 345 224 593q250 276 639 276zM935 1247q-158 0 -288.5 -76.5t-210.5 -220t-80 -296.5q0 -181 111 -307t319 -126q241 0 409.5 170t168.5 413
q0 201 -118.5 322t-310.5 121zM774 1865q52 0 87.5 -35t35.5 -84q0 -69 -48 -118t-117 -49q-56 0 -90 34.5t-34 90.5q0 64 49.5 112.5t116.5 48.5zM1217 1865q52 0 87.5 -35t35.5 -84q0 -69 -48 -118t-117 -49q-56 0 -90 34.5t-34 90.5q0 64 49.5 112.5t116.5 48.5z" />
    <glyph glyph-name="Udieresis" unicode="&#xdc;" horiz-adv-x="1311" 
d="M260 1471h275l-122 -908q-16 -119 -16 -168q0 -83 51.5 -129.5t149.5 -46.5q79 0 138 35q44 26 70.5 86.5t51.5 240.5l123 890h278l-120 -878q-37 -271 -97 -389t-173.5 -179.5t-276.5 -61.5q-220 0 -343 117t-123 320q0 88 24 260zM605 1865q52 0 87.5 -35t35.5 -84
q0 -69 -48 -118t-117 -49q-56 0 -90 34.5t-34 90.5q0 64 49.5 112.5t116.5 48.5zM1048 1865q52 0 87.5 -35t35.5 -84q0 -69 -48 -118t-117 -49q-56 0 -90 34.5t-34 90.5q0 64 49.5 112.5t116.5 48.5z" />
    <glyph glyph-name="aacute" unicode="&#xe1;" horiz-adv-x="1352" 
d="M984 1088h267l-142 -1088h-264l15 117q-87 -81 -162.5 -113t-169.5 -32q-216 0 -343.5 159t-127.5 370q0 161 81 306.5t217.5 227t285.5 81.5q100 0 184.5 -46t139.5 -134zM590 210q98 0 171 44t122.5 138t49.5 192q0 129 -74.5 207.5t-196.5 78.5q-142 0 -241 -105
t-99 -271q0 -128 75 -206t193 -78zM860 1677h323l-421 -391h-196z" />
    <glyph glyph-name="agrave" unicode="&#xe0;" horiz-adv-x="1352" 
d="M984 1088h267l-142 -1088h-264l15 117q-87 -81 -162.5 -113t-169.5 -32q-216 0 -343.5 159t-127.5 370q0 161 81 306.5t217.5 227t285.5 81.5q100 0 184.5 -46t139.5 -134zM590 210q98 0 171 44t122.5 138t49.5 192q0 129 -74.5 207.5t-196.5 78.5q-142 0 -241 -105
t-99 -271q0 -128 75 -206t193 -78zM461 1677h322l182 -392h-195z" />
    <glyph glyph-name="acircumflex" unicode="&#xe2;" horiz-adv-x="1352" 
d="M984 1088h267l-142 -1088h-264l15 117q-87 -81 -162.5 -113t-169.5 -32q-216 0 -343.5 159t-127.5 370q0 161 81 306.5t217.5 227t285.5 81.5q100 0 184.5 -46t139.5 -134zM590 210q98 0 171 44t122.5 138t49.5 192q0 129 -74.5 207.5t-196.5 78.5q-142 0 -241 -105
t-99 -271q0 -128 75 -206t193 -78zM692 1536h218l259 -282h-298l-90 130l-130 -130h-300z" />
    <glyph glyph-name="adieresis" unicode="&#xe4;" horiz-adv-x="1352" 
d="M984 1088h267l-142 -1088h-264l15 117q-87 -81 -162.5 -113t-169.5 -32q-216 0 -343.5 159t-127.5 370q0 161 81 306.5t217.5 227t285.5 81.5q100 0 184.5 -46t139.5 -134zM590 210q98 0 171 44t122.5 138t49.5 192q0 129 -74.5 207.5t-196.5 78.5q-142 0 -241 -105
t-99 -271q0 -128 75 -206t193 -78zM529 1536q52 0 87.5 -35t35.5 -84q0 -69 -48 -118t-117 -49q-56 0 -90 34.5t-34 90.5q0 64 49.5 112.5t116.5 48.5zM972 1536q52 0 87.5 -35t35.5 -84q0 -69 -48 -118t-117 -49q-56 0 -90 34.5t-34 90.5q0 64 49.5 112.5t116.5 48.5z" />
    <glyph glyph-name="atilde" unicode="&#xe3;" horiz-adv-x="1352" 
d="M984 1088h267l-142 -1088h-264l15 117q-87 -81 -162.5 -113t-169.5 -32q-216 0 -343.5 159t-127.5 370q0 161 81 306.5t217.5 227t285.5 81.5q100 0 184.5 -46t139.5 -134zM590 210q98 0 171 44t122.5 138t49.5 192q0 129 -74.5 207.5t-196.5 78.5q-142 0 -241 -105
t-99 -271q0 -128 75 -206t193 -78zM432 1289l-86 165q89 57 150.5 77t123.5 20q47 0 122 -21q119 -33 167 -33q85 0 179 51l83 -155q-102 -72 -140 -86q-61 -22 -122 -22t-148 27q-71 22 -89 26q-24 4 -54 4q-98 0 -186 -53z" />
    <glyph glyph-name="aring" unicode="&#xe5;" horiz-adv-x="1352" 
d="M984 1088h267l-142 -1088h-264l15 117q-87 -81 -162.5 -113t-169.5 -32q-216 0 -343.5 159t-127.5 370q0 161 81 306.5t217.5 227t285.5 81.5q100 0 184.5 -46t139.5 -134zM590 210q98 0 171 44t122.5 138t49.5 192q0 129 -74.5 207.5t-196.5 78.5q-142 0 -241 -105
t-99 -271q0 -128 75 -206t193 -78zM820 1731q81 0 133.5 -53t52.5 -140q0 -99 -77 -176t-176 -77q-82 0 -135.5 55t-53.5 138q0 104 75.5 178.5t180.5 74.5zM801 1603q-40 0 -69.5 -30t-29.5 -71q0 -34 20 -55t51 -21q37 0 66 30t29 70q0 34 -19.5 55.5t-47.5 21.5z" />
    <glyph glyph-name="ccedilla" unicode="&#xe7;" horiz-adv-x="1311" 
d="M1187 863l-226 -123q-96 122 -258 122q-109 0 -193 -46.5t-134 -134.5t-50 -186q0 -126 79 -202t217 -76q191 0 293 129l210 -148q-89 -106 -221.5 -166t-295.5 -60q-254 0 -400.5 140t-146.5 370q0 263 181 448.5t466 185.5q321 0 479 -253zM573 14h169l-18 -44
q60 -16 91 -52.5t31 -81.5q0 -86 -77.5 -152t-206.5 -66q-108 0 -216 47l54 129q71 -24 138 -24q53 0 82.5 23t29.5 57q0 24 -16.5 36t-62.5 12l-51 -2z" />
    <glyph glyph-name="eacute" unicode="&#xe9;" horiz-adv-x="1311" 
d="M861 319l235 -122q-79 -104 -209.5 -164.5t-289.5 -60.5q-249 0 -392.5 140t-143.5 372q0 265 179.5 448.5t433.5 183.5q153 0 272.5 -67t188.5 -195t69 -278q0 -47 -10 -110h-868q4 -113 74.5 -180t194.5 -67q150 0 266 100zM929 662q-30 100 -100 151.5t-169 51.5
q-98 0 -177 -53t-120 -150h566zM840 1677h323l-421 -391h-196z" />
    <glyph glyph-name="egrave" unicode="&#xe8;" horiz-adv-x="1311" 
d="M861 319l235 -122q-79 -104 -209.5 -164.5t-289.5 -60.5q-249 0 -392.5 140t-143.5 372q0 265 179.5 448.5t433.5 183.5q153 0 272.5 -67t188.5 -195t69 -278q0 -47 -10 -110h-868q4 -113 74.5 -180t194.5 -67q150 0 266 100zM929 662q-30 100 -100 151.5t-169 51.5
q-98 0 -177 -53t-120 -150h566zM441 1677h322l182 -392h-195z" />
    <glyph glyph-name="ecircumflex" unicode="&#xea;" horiz-adv-x="1311" 
d="M861 319l235 -122q-79 -104 -209.5 -164.5t-289.5 -60.5q-249 0 -392.5 140t-143.5 372q0 265 179.5 448.5t433.5 183.5q153 0 272.5 -67t188.5 -195t69 -278q0 -47 -10 -110h-868q4 -113 74.5 -180t194.5 -67q150 0 266 100zM929 662q-30 100 -100 151.5t-169 51.5
q-98 0 -177 -53t-120 -150h566zM672 1536h218l259 -282h-298l-90 130l-130 -130h-300z" />
    <glyph glyph-name="edieresis" unicode="&#xeb;" horiz-adv-x="1311" 
d="M861 319l235 -122q-79 -104 -209.5 -164.5t-289.5 -60.5q-249 0 -392.5 140t-143.5 372q0 265 179.5 448.5t433.5 183.5q153 0 272.5 -67t188.5 -195t69 -278q0 -47 -10 -110h-868q4 -113 74.5 -180t194.5 -67q150 0 266 100zM929 662q-30 100 -100 151.5t-169 51.5
q-98 0 -177 -53t-120 -150h566zM509 1536q52 0 87.5 -35t35.5 -84q0 -69 -48 -118t-117 -49q-56 0 -90 34.5t-34 90.5q0 64 49.5 112.5t116.5 48.5zM952 1536q52 0 87.5 -35t35.5 -84q0 -69 -48 -118t-117 -49q-56 0 -90 34.5t-34 90.5q0 64 49.5 112.5t116.5 48.5z" />
    <glyph glyph-name="iacute" unicode="&#xed;" horiz-adv-x="491" 
d="M158 1088h264l-146 -1088h-266zM430 1677h323l-421 -391h-196z" />
    <glyph glyph-name="igrave" unicode="&#xec;" horiz-adv-x="491" 
d="M158 1088h264l-146 -1088h-266zM31 1677h322l182 -392h-195z" />
    <glyph glyph-name="icircumflex" unicode="&#xee;" horiz-adv-x="491" 
d="M158 1088h264l-146 -1088h-266zM262 1536h218l259 -282h-298l-90 130l-130 -130h-300z" />
    <glyph glyph-name="idieresis" unicode="&#xef;" horiz-adv-x="491" 
d="M158 1088h264l-146 -1088h-266zM99 1536q52 0 87.5 -35t35.5 -84q0 -69 -48 -118t-117 -49q-56 0 -90 34.5t-34 90.5q0 64 49.5 112.5t116.5 48.5zM542 1536q52 0 87.5 -35t35.5 -84q0 -69 -48 -118t-117 -49q-56 0 -90 34.5t-34 90.5q0 64 49.5 112.5t116.5 48.5z" />
    <glyph glyph-name="ntilde" unicode="&#xf1;" 
d="M193 1088h266l-16 -110q153 138 318 138q141 0 231 -89.5t90 -225.5q0 -64 -17 -191l-81 -610h-265l79 595q12 92 12 138q0 66 -37.5 101.5t-106.5 35.5q-67 0 -134 -46.5t-103 -129t-66 -309.5l-51 -385h-266zM371 1289l-86 165q89 57 150.5 77t123.5 20q47 0 122 -21
q119 -33 167 -33q85 0 179 51l83 -155q-102 -72 -140 -86q-61 -22 -122 -22t-148 27q-71 22 -89 26q-24 4 -54 4q-98 0 -186 -53z" />
    <glyph glyph-name="oacute" unicode="&#xf3;" horiz-adv-x="1311" 
d="M684 1116q145 0 263.5 -67t184.5 -190t66 -276q0 -254 -181 -432.5t-448 -178.5q-232 0 -370 140.5t-138 367.5q0 274 187 455t436 181zM665 863q-164 0 -251.5 -117.5t-87.5 -254.5q0 -122 71.5 -196.5t190.5 -74.5q169 0 257.5 113.5t88.5 259.5q0 120 -75 195t-194 75
zM840 1677h323l-421 -391h-196z" />
    <glyph glyph-name="ograve" unicode="&#xf2;" horiz-adv-x="1311" 
d="M684 1116q145 0 263.5 -67t184.5 -190t66 -276q0 -254 -181 -432.5t-448 -178.5q-232 0 -370 140.5t-138 367.5q0 274 187 455t436 181zM665 863q-164 0 -251.5 -117.5t-87.5 -254.5q0 -122 71.5 -196.5t190.5 -74.5q169 0 257.5 113.5t88.5 259.5q0 120 -75 195t-194 75
zM442 1677h322l182 -392h-195z" />
    <glyph glyph-name="ocircumflex" unicode="&#xf4;" horiz-adv-x="1311" 
d="M684 1116q145 0 263.5 -67t184.5 -190t66 -276q0 -254 -181 -432.5t-448 -178.5q-232 0 -370 140.5t-138 367.5q0 274 187 455t436 181zM665 863q-164 0 -251.5 -117.5t-87.5 -254.5q0 -122 71.5 -196.5t190.5 -74.5q169 0 257.5 113.5t88.5 259.5q0 120 -75 195t-194 75
zM672 1536h218l259 -282h-298l-90 130l-130 -130h-300z" />
    <glyph glyph-name="odieresis" unicode="&#xf6;" horiz-adv-x="1311" 
d="M684 1116q145 0 263.5 -67t184.5 -190t66 -276q0 -254 -181 -432.5t-448 -178.5q-232 0 -370 140.5t-138 367.5q0 274 187 455t436 181zM665 863q-164 0 -251.5 -117.5t-87.5 -254.5q0 -122 71.5 -196.5t190.5 -74.5q169 0 257.5 113.5t88.5 259.5q0 120 -75 195t-194 75
zM509 1536q52 0 87.5 -35t35.5 -84q0 -69 -48 -118t-117 -49q-56 0 -90 34.5t-34 90.5q0 64 49.5 112.5t116.5 48.5zM952 1536q52 0 87.5 -35t35.5 -84q0 -69 -48 -118t-117 -49q-56 0 -90 34.5t-34 90.5q0 64 49.5 112.5t116.5 48.5z" />
    <glyph glyph-name="otilde" unicode="&#xf5;" horiz-adv-x="1311" 
d="M684 1116q145 0 263.5 -67t184.5 -190t66 -276q0 -254 -181 -432.5t-448 -178.5q-232 0 -370 140.5t-138 367.5q0 274 187 455t436 181zM665 863q-164 0 -251.5 -117.5t-87.5 -254.5q0 -122 71.5 -196.5t190.5 -74.5q169 0 257.5 113.5t88.5 259.5q0 120 -75 195t-194 75
zM412 1289l-86 165q89 57 150.5 77t123.5 20q47 0 122 -21q119 -33 167 -33q85 0 179 51l83 -155q-102 -72 -140 -86q-61 -22 -122 -22t-148 27q-71 22 -89 26q-24 4 -54 4q-98 0 -186 -53z" />
    <glyph glyph-name="uacute" unicode="&#xfa;" 
d="M195 1088h264l-73 -556q-12 -92 -12 -138q0 -72 50 -121t130 -49q103 0 158.5 63t81.5 256l75 545h264l-79 -585q-27 -198 -90.5 -306.5t-168.5 -166.5t-247 -58q-200 0 -318 115.5t-118 298.5q0 112 25 288zM798 1677h323l-421 -391h-196z" />
    <glyph glyph-name="ugrave" unicode="&#xf9;" 
d="M195 1088h264l-73 -556q-12 -92 -12 -138q0 -72 50 -121t130 -49q103 0 158.5 63t81.5 256l75 545h264l-79 -585q-27 -198 -90.5 -306.5t-168.5 -166.5t-247 -58q-200 0 -318 115.5t-118 298.5q0 112 25 288zM400 1677h322l182 -392h-195z" />
    <glyph glyph-name="ucircumflex" unicode="&#xfb;" 
d="M195 1088h264l-73 -556q-12 -92 -12 -138q0 -72 50 -121t130 -49q103 0 158.5 63t81.5 256l75 545h264l-79 -585q-27 -198 -90.5 -306.5t-168.5 -166.5t-247 -58q-200 0 -318 115.5t-118 298.5q0 112 25 288zM631 1536h218l259 -282h-298l-90 130l-130 -130h-300z" />
    <glyph glyph-name="udieresis" unicode="&#xfc;" 
d="M195 1088h264l-73 -556q-12 -92 -12 -138q0 -72 50 -121t130 -49q103 0 158.5 63t81.5 256l75 545h264l-79 -585q-27 -198 -90.5 -306.5t-168.5 -166.5t-247 -58q-200 0 -318 115.5t-118 298.5q0 112 25 288zM467 1536q52 0 87.5 -35t35.5 -84q0 -69 -48 -118t-117 -49
q-56 0 -90 34.5t-34 90.5q0 64 49.5 112.5t116.5 48.5zM910 1536q52 0 87.5 -35t35.5 -84q0 -69 -48 -118t-117 -49q-56 0 -90 34.5t-34 90.5q0 64 49.5 112.5t116.5 48.5z" />
    <glyph glyph-name="dagger" unicode="&#x2020;" horiz-adv-x="1147" 
d="M546 1508h268l-124 -544l460 46l-40 -269l-443 53l-121 -1192h-269l220 1192l-459 -53l37 269l444 -46z" />
    <glyph glyph-name="degree" unicode="&#xb0;" horiz-adv-x="819" 
d="M797 1164q0 -145 -101 -244.5t-245 -99.5t-244 100t-100 247q0 141 102.5 241t244.5 100t242.5 -100t100.5 -244zM678 1162q0 99 -65 166t-158 67q-95 0 -162 -67.5t-67 -163.5q0 -94 67.5 -163t160.5 -69q92 0 158 67.5t66 162.5z" />
    <glyph glyph-name="cent" unicode="&#xa2;" horiz-adv-x="1147" 
d="M1037 1356l132 -86l-159 -243q53 -35 99 -79l-147 -186q-39 36 -82 64l-394 -607q52 -14 90 -14q68 0 148.5 41.5t141.5 114.5l144 -193q-114 -110 -223.5 -157.5t-231.5 -47.5q-107 0 -206 42l-200 -308l-132 84l203 312q-150 153 -150 378q0 174 86 328t231.5 239.5
t311.5 85.5q81 0 167 -29zM730 883l-48 2q-144 0 -253 -117t-109 -282q0 -80 46 -166z" />
    <glyph glyph-name="sterling" unicode="&#xa3;" horiz-adv-x="1147" 
d="M1066 1088h-269q4 31 4 53q0 51 -32.5 82t-89.5 31q-71 0 -116 -50.5t-45 -138.5q0 -51 22 -197h326l-33 -252h-279q-1 -94 -22 -163q-28 -93 -91 -210q19 0 103 -11q62 -8 99 -8q100 0 142 109h267q-51 -181 -164 -275.5t-259 -94.5q-70 0 -224 19q-145 18 -195 18
q-95 0 -236 -41l34 251q70 23 141 33q83 157 105.5 224.5t27.5 148.5h-220l32 252h161q-27 114 -27 199q0 189 133 315t348 126q170 0 268 -92.5t98 -236.5q0 -36 -9 -91z" />
    <glyph glyph-name="section" unicode="&#xa7;" horiz-adv-x="1147" 
d="M1048 1151h-267q-4 64 -41.5 98.5t-99.5 34.5q-58 0 -93 -30.5t-35 -72.5q0 -35 30 -72q29 -37 154 -128q158 -115 211 -171.5t78 -117.5t25 -130q0 -115 -70.5 -205t-201.5 -130q73 -55 109 -124.5t36 -153.5q0 -162 -130 -268.5t-310 -106.5q-113 0 -199 45.5
t-135.5 129t-49.5 178.5v23h261q6 -57 45 -91.5t102 -34.5q66 0 103.5 31t37.5 76q0 19 -7.5 37t-23.5 35q-55 62 -262 214q-137 100 -182.5 176.5t-45.5 165.5q0 111 69 210.5t188 149.5q-55 50 -83 109.5t-28 128.5q0 153 123 266t311 113q171 0 276 -108t105 -277z
M487 800q-77 -23 -119.5 -73.5t-42.5 -109.5q0 -39 18 -67.5t98 -90.5l160 -123q83 25 124 67.5t41 101.5q0 44 -27.5 85.5t-121.5 112.5z" />
    <glyph glyph-name="bullet" unicode="&#x2022;" 
d="M614 1053q127 0 217 -90t90 -217q0 -128 -90 -218t-217 -90t-217 90t-90 218q0 127 90 217t217 90z" />
    <glyph glyph-name="paragraph" unicode="&#xb6;" 
d="M552 -379v1089q-184 1 -286.5 105t-102.5 289q0 203 111.5 306t361.5 103h420v-116h-82v-1776h-139v1776h-144v-1776h-139z" />
    <glyph glyph-name="germandbls" unicode="&#xdf;" 
d="M545 729l31 210q87 0 157 31t102.5 78t32.5 101q0 56 -44.5 96.5t-114.5 40.5q-103 0 -174.5 -75.5t-91.5 -243.5l-7 -59l-124 -908h-265l111 866q36 283 101.5 404t188 193.5t275.5 72.5q187 0 299 -102t112 -256q0 -126 -74 -222t-206 -138q244 -122 244 -372
q0 -201 -142 -337.5t-363 -136.5q-99 0 -184 35l30 250q67 -37 139 -37q110 0 185 72.5t75 179.5q0 112 -78.5 184t-214.5 73z" />
    <glyph glyph-name="registered" unicode="&#xae;" horiz-adv-x="1515" 
d="M1524 755q0 -205 -102.5 -381.5t-280 -279t-383.5 -102.5q-205 0 -383 102.5t-280.5 279t-102.5 382.5q0 205 102.5 382t280 279.5t383.5 102.5t383.5 -102.5t280 -279.5t102.5 -383zM1366 753q0 254 -177.5 431.5t-428.5 177.5q-253 0 -431.5 -177t-178.5 -427
q0 -162 80.5 -301t222.5 -220t305 -81q162 0 304 80.5t223 219t81 297.5zM441 1173h371q117 0 172 -26t88.5 -82t33.5 -135q0 -67 -20.5 -109.5t-77.5 -83.5q46 -26 63 -58.5t21 -114.5q7 -156 13.5 -181.5t35.5 -48.5h-210q-14 34 -18 57t-5 79q-3 111 -12 137t-31.5 39
t-90.5 13h-149v-325h-184v839zM625 1012v-199h154q89 0 118 24t29 77t-28.5 75.5t-117.5 22.5h-155z" />
    <glyph glyph-name="copyright" unicode="&#xa9;" horiz-adv-x="1515" 
d="M1524 757q0 -205 -102.5 -382.5t-280.5 -280t-383 -102.5t-383 102.5t-280.5 280t-102.5 382.5q0 204 102.5 381t280 279.5t383.5 102.5t383.5 -102.5t280 -279.5t102.5 -381zM1366 754q0 253 -177.5 430.5t-429.5 177.5q-164 0 -305.5 -81t-222.5 -221.5t-81 -301.5
t81 -300.5t222.5 -220.5t303.5 -81q163 0 305 81t223 219.5t81 297.5zM980 616h176q-17 -131 -118 -216t-248 -85q-188 0 -308.5 126.5t-120.5 328.5q0 196 119 318t304 122q149 0 245 -75t127 -218h-176q-17 74 -68 114t-126 40q-111 0 -183 -80.5t-72 -218.5
q0 -142 76.5 -229.5t182.5 -87.5q75 0 128 45t62 116z" />
    <glyph glyph-name="trademark" unicode="&#x2122;" horiz-adv-x="2048" 
d="M1905 1471v-840h-176v691l-275 -691h-88l-266 691v-691h-176v840h267l219 -540l230 540h265zM809 1471v-147h-262v-693h-182v693h-264v147h708z" />
    <glyph glyph-name="acute" unicode="&#xb4;" horiz-adv-x="860" 
d="M615 1677h323l-421 -391h-196z" />
    <glyph glyph-name="dieresis" unicode="&#xa8;" horiz-adv-x="1024" 
d="M365 1536q52 0 87.5 -35t35.5 -84q0 -69 -48 -118t-117 -49q-56 0 -90 34.5t-34 90.5q0 64 49.5 112.5t116.5 48.5zM808 1536q52 0 87.5 -35t35.5 -84q0 -69 -48 -118t-117 -49q-56 0 -90 34.5t-34 90.5q0 64 49.5 112.5t116.5 48.5z" />
    <glyph glyph-name="notequal" unicode="&#x2260;" horiz-adv-x="1124" 
d="M803 1074h258v-250h-365l-76 -178h441v-250h-548l-186 -433h-193l186 433h-258v250h365l76 178h-441v250h548l186 434h193z" />
    <glyph glyph-name="AE" unicode="&#xc6;" horiz-adv-x="1843" 
d="M761 1471h1015l-35 -261h-523l-42 -306h527l-35 -258h-524l-54 -390h527l-34 -256h-795l42 314h-399l-171 -314h-296zM865 572l94 726l-391 -726h297z" />
    <glyph glyph-name="Oslash" unicode="&#xd8;" horiz-adv-x="1720" 
d="M1472 1284q170 -195 170 -465q0 -230 -116 -433.5t-310 -313t-443 -109.5q-225 0 -382 91l-135 -154l-121 100l132 151q-185 190 -185 488q0 239 114 440t310 315t430 114q244 0 414 -117l128 147l121 -104zM453 364l718 822q-105 61 -241 61q-154 0 -284.5 -77
t-210 -220.5t-79.5 -295.5q0 -168 97 -290zM1286 1076l-710 -810q91 -45 213 -45q239 0 407 170.5t168 411.5q0 157 -78 273z" />
    <glyph glyph-name="infinity" unicode="&#x221e;" horiz-adv-x="1460" 
d="M679 843q77 126 155 177t168 51q133 0 220 -94t87 -255t-87 -255t-220 -94q-90 0 -167.5 50.5t-155.5 177.5q-59 -82 -137 -127t-150 -45q-103 0 -172.5 80t-69.5 213t69.5 212.5t172.5 79.5q72 0 150 -44.5t137 -126.5zM772 724q84 -129 118 -158q53 -45 115 -45
q75 0 116.5 58t41.5 147q0 92 -44 145t-111 53q-54 0 -105.5 -38.5t-130.5 -161.5zM593 726q-100 141 -190 141q-47 0 -80 -37.5t-33 -102.5q0 -67 32.5 -105.5t80.5 -38.5q40 0 73 23q52 36 117 120z" />
    <glyph glyph-name="plusminus" unicode="&#xb1;" horiz-adv-x="1124" 
d="M437 1079v375h250v-375h374v-250h-374v-374h-250v374h-375v250h375zM62 250h999v-250h-999v250z" />
    <glyph glyph-name="lessequal" unicode="&#x2264;" horiz-adv-x="1124" 
d="M1061 568v-250l-999 509v221l999 508v-249l-712 -370zM62 206h999v-250h-999v250z" />
    <glyph glyph-name="greaterequal" unicode="&#x2265;" horiz-adv-x="1124" 
d="M62 568l713 369l-713 370v249l999 -508v-221l-999 -509v250zM1061 206v-250h-999v250h999z" />
    <glyph glyph-name="yen" unicode="&#xa5;" horiz-adv-x="1147" 
d="M66 1471h271l179 -580l364 580h307l-465 -739h217l-21 -166h-298l-16 -115h296l-20 -168h-300l-38 -283h-276l38 283h-284l21 168h286l15 115h-284l24 166h213z" />
    <glyph glyph-name="mu1" unicode="&#xb5;" horiz-adv-x="1180" 
d="M-69 -398l222 1486h265l-86 -571q-13 -85 -13 -123q0 -81 56 -136t137 -55q64 0 120 33.5t92.5 98.5t54.5 190l85 563h264l-164 -1088h-263l19 127q-57 -85 -118 -120.5t-131 -35.5q-66 0 -116.5 35.5t-82.5 112.5l-77 -517h-264z" />
    <glyph glyph-name="partialdiff" unicode="&#x2202;" horiz-adv-x="1012" 
d="M380 1123l-137 84q52 141 150 212.5t220 71.5q104 0 185 -57t130.5 -180t49.5 -311q0 -292 -102 -560q-77 -202 -218 -305t-302 -103q-139 0 -225 92.5t-86 261.5q0 166 89.5 306.5t258.5 224t393 83.5l41 -1q-1 192 -62.5 279.5t-156.5 87.5q-67 0 -119 -38t-109 -148z
M815 758l-44 1q-141 0 -256.5 -56t-178 -157t-62.5 -208q0 -76 41.5 -124.5t99.5 -48.5q130 0 245.5 151.5t154.5 441.5z" />
    <glyph glyph-name="summation" unicode="&#x2211;" horiz-adv-x="1460" 
d="M139 1508h1237v-164h-988l607 -775l-649 -806h1040v-161h-1264v187l620 772l-603 772v175z" />
    <glyph glyph-name="product" unicode="&#x220f;" horiz-adv-x="1685" 
d="M162 1508h1362v-1906h-191v1732h-978v-1732h-193v1906z" />
    <glyph glyph-name="pi1" unicode="&#xf006;" horiz-adv-x="1124" 
d="M209 1063h996l-58 -201h-99l-261 -862h-286l258 858h-210l-260 -858h-289l261 856h-112z" />
    <glyph glyph-name="integral" unicode="&#x222b;" horiz-adv-x="561" 
d="M201 948q0 209 16 499q10 184 54 292q25 60 71.5 92t92.5 32q49 0 87 -33t38 -74q0 -46 -26.5 -75t-65.5 -29q-35 0 -76 36q-23 20 -40 20q-18 0 -29 -14.5t-11 -49.5q0 -42 9 -145q37 -410 37 -665q0 -67 -15 -567q-9 -305 -84 -410q-55 -77 -141 -77q-52 0 -85 34
t-33 87q0 44 25.5 71.5t64.5 27.5q40 0 70 -33q28 -31 48 -31q17 0 28 14.5t11 46.5q0 42 -9 120q-37 316 -37 831z" />
    <glyph glyph-name="ordfeminine" unicode="&#xaa;" horiz-adv-x="737" 
d="M535 1491h198l-96 -681h-196l8 60q-49 -47 -82.5 -61.5t-81.5 -14.5q-88 0 -150.5 80.5t-62.5 220.5q0 174 98.5 293.5t218.5 119.5q39 0 68.5 -16.5t68.5 -64.5zM368 964q53 0 87 48q45 65 45 163q0 77 -29.5 117.5t-73.5 40.5q-50 0 -90 -56t-40 -156q0 -76 30 -116.5
t71 -40.5z" />
    <glyph glyph-name="ordmasculine" unicode="&#xba;" horiz-adv-x="737" 
d="M431 1508q129 0 214.5 -91.5t85.5 -242.5q0 -160 -106 -270t-259 -110q-133 0 -214.5 87t-81.5 231q0 168 107 282t254 114zM416 1328q-61 0 -105 -57t-44 -152q0 -71 31.5 -110t82.5 -39q65 0 109.5 56.5t44.5 152.5q0 70 -34 109.5t-85 39.5z" />
    <glyph glyph-name="Ohm" unicode="&#x2126;" horiz-adv-x="1573" 
d="M361 209q-100 72 -148 156q-66 115 -66 254q0 229 119.5 447t300.5 328t408 110q274 0 435 -159t161 -426q0 -170 -63.5 -314.5t-173.5 -250.5q-68 -65 -207 -145q175 14 294 27l-59 -236h-634l68 216q91 18 143 48q92 53 157 139q86 112 136 261t50 292
q0 163 -83.5 250.5t-233.5 87.5q-159 0 -276 -103.5t-190 -296t-73 -356.5q0 -138 55 -223q38 -58 119 -99l-69 -216h-530l68 234l47 -4q139 -18 245 -21z" />
    <glyph glyph-name="ae" unicode="&#xe6;" horiz-adv-x="2212" 
d="M2080 463h-886q43 -247 284 -247q156 0 269 100l236 -121q-72 -97 -206 -160t-291 -63q-107 0 -190.5 27.5t-175.5 94.5l-12 -94h-244l15 114q-130 -142 -332 -142q-137 0 -237 62t-167.5 191t-67.5 275q0 160 81.5 305.5t219.5 228t285 82.5q97 0 182.5 -47.5
t140.5 -134.5l22 182h243l-16 -121q171 121 355 121q206 0 354.5 -156.5t148.5 -380.5q0 -48 -11 -116zM680 867q-142 0 -241 -106.5t-99 -268.5q0 -130 74.5 -208t193.5 -78q96 0 173 45.5t123.5 136.5t46.5 191q0 129 -76 208.5t-195 79.5zM1816 659q-29 99 -98 151.5
t-166 52.5q-98 0 -179 -49t-142 -155h585z" />
    <glyph glyph-name="oslash" unicode="&#xf8;" horiz-adv-x="1352" 
d="M1102 937q117 -150 117 -354q0 -254 -181 -432.5t-447 -178.5q-164 0 -277 65l-153 -176l-116 105l151 173q-115 143 -115 340q0 174 83 319.5t228.5 231.5t306.5 86t284 -75l163 187l119 -104zM379 349l427 490q-55 24 -125 24q-161 0 -248 -118.5t-87 -252.5
q0 -79 33 -143zM922 731l-429 -490q52 -21 116 -21q167 0 256.5 112.5t89.5 258.5q0 81 -33 140z" />
    <glyph glyph-name="questiondown" unicode="&#xbf;" horiz-adv-x="1147" 
d="M633 802q-69 0 -118.5 49t-49.5 119q0 69 49.5 118.5t118.5 49.5q70 0 119 -49.5t49 -118.5q0 -70 -49 -119t-119 -49zM710 12h262q-14 -126 -84 -226t-187 -156t-264 -56q-192 0 -314 115.5t-122 276.5q0 204 242 381q110 81 137.5 112.5t47 83.5t26.5 131h256
q-4 -181 -59.5 -287.5t-203.5 -206.5q-119 -80 -150.5 -124t-31.5 -88q0 -58 54.5 -102t144.5 -44q199 0 246 190z" />
    <glyph glyph-name="exclamdown" unicode="&#xa1;" horiz-adv-x="573" 
d="M326 802q-70 0 -119 49t-49 119q0 69 49 118.5t119 49.5q69 0 118 -49.5t49 -118.5q0 -70 -49 -119t-118 -49zM279 -398h-275l151 1074h275z" />
    <glyph glyph-name="logicalnot" unicode="&#xac;" 
d="M115 1074h999v-678l-249 1v428l-750 -1v250z" />
    <glyph glyph-name="radical" unicode="&#x221a;" horiz-adv-x="1124" 
d="M1047 1869h74l-312 -1947l-496 1021l-198 -91l-34 64l301 151l405 -823z" />
    <glyph glyph-name="florin" unicode="&#x192;" horiz-adv-x="1147" 
d="M1054 1453l-33 -239q-82 59 -139 59q-41 0 -65 -34t-41 -156l-21 -149h224l-34 -234h-226l-106 -756q-20 -146 -59 -219t-102 -112t-137 -39q-58 0 -118 19t-149 71l34 242q95 -74 160 -74q39 0 61 29t36 132l107 707h-227l34 234h227l33 249q26 187 95.5 270t198.5 83
q65 0 117.5 -16.5t129.5 -66.5z" />
    <glyph glyph-name="approxequal" unicode="&#x2248;" horiz-adv-x="1124" 
d="M47 806v318q152 74 250 74q64 0 140.5 -21t203.5 -83q83 -41 109 -48q35 -10 69 -10q111 0 258 113v-322q-126 -72 -247 -72q-66 0 -133 18t-218 85q-96 42 -128.5 51t-65.5 9q-50 0 -101 -22.5t-137 -89.5zM47 323v319q152 74 250 74q64 0 140.5 -21.5t203.5 -83.5
q83 -40 109 -47q35 -10 69 -10q111 0 258 113v-323q-126 -71 -247 -71q-66 0 -133 17.5t-218 84.5q-96 43 -128.5 51.5t-65.5 8.5q-50 0 -101 -22.5t-137 -89.5z" />
    <glyph glyph-name="increment" unicode="&#x2206;" horiz-adv-x="1253" 
d="M1226 0h-1200l628 1387zM990 82l-399 967l-440 -967h839z" />
    <glyph glyph-name="guillemotleft" unicode="&#xab;" horiz-adv-x="942" 
d="M260 1088h254l-263 -550l108 -538h-255l-107 538zM714 1088h253l-263 -550l108 -538h-254l-108 538z" />
    <glyph glyph-name="guillemotright" unicode="&#xbb;" horiz-adv-x="942" 
d="M628 0h-254l263 550l-108 538h255l107 -538zM174 0h-253l263 550l-108 538h254l108 -538z" />
    <glyph glyph-name="ellipsis" unicode="&#x2026;" horiz-adv-x="2048" 
d="M1024 308q69 0 118 -49t49 -119q0 -69 -49 -118.5t-118 -49.5q-70 0 -119 49.5t-49 118.5q0 70 49 119t119 49zM341 308q69 0 118.5 -49t49.5 -119q0 -69 -49.5 -118.5t-118.5 -49.5q-70 0 -119 49.5t-49 118.5q0 70 49 119t119 49zM1706 308q70 0 119 -49t49 -119
q0 -69 -49 -118.5t-119 -49.5q-69 0 -118.5 49.5t-49.5 118.5q0 70 49.5 119t118.5 49z" />
    <glyph glyph-name="nbspace" unicode="&#xa0;" horiz-adv-x="573" 
 />
    <glyph glyph-name="Agrave" unicode="&#xc0;" horiz-adv-x="1515" 
d="M770 1471h233l366 -1471h-268l-78 313h-581l-169 -313h-297zM956 573l-118 483l-259 -483h377zM604 2006h322l182 -392h-195z" />
    <glyph glyph-name="Atilde" unicode="&#xc3;" horiz-adv-x="1515" 
d="M770 1471h233l366 -1471h-268l-78 313h-581l-169 -313h-297zM956 573l-118 483l-259 -483h377zM574 1618l-86 165q89 57 150.5 77t123.5 20q47 0 122 -21q119 -33 167 -33q85 0 179 51l83 -155q-102 -72 -140 -86q-61 -22 -122 -22t-148 27q-71 22 -89 26q-24 4 -54 4
q-98 0 -186 -53z" />
    <glyph glyph-name="Otilde" unicode="&#xd5;" horiz-adv-x="1720" 
d="M945 1508q303 0 500 -195t197 -495q0 -230 -116.5 -433.5t-310 -312.5t-444.5 -109q-314 0 -501.5 186t-187.5 490q0 345 224 593q250 276 639 276zM935 1247q-158 0 -288.5 -76.5t-210.5 -220t-80 -296.5q0 -181 111 -307t319 -126q241 0 409.5 170t168.5 413
q0 201 -118.5 322t-310.5 121zM677 1618l-86 165q89 57 150.5 77t123.5 20q47 0 122 -21q119 -33 167 -33q85 0 179 51l83 -155q-102 -72 -140 -86q-61 -22 -122 -22t-148 27q-71 22 -89 26q-24 4 -54 4q-98 0 -186 -53z" />
    <glyph glyph-name="OE" unicode="&#x152;" horiz-adv-x="2171" 
d="M1420 1471h742l-34 -259h-471l-39 -306h472l-35 -260h-472l-52 -388h477l-37 -258h-747l17 120q-103 -83 -217.5 -120t-265.5 -37q-338 0 -515 198t-177 484q0 236 114 436t312 313.5t433 113.5q145 0 257.5 -44.5t218.5 -145.5zM919 1247q-154 0 -286.5 -78t-210 -217
t-77.5 -302q0 -193 116 -311t307 -118q238 0 403 169.5t165 419.5q0 196 -117 316.5t-300 120.5z" />
    <glyph glyph-name="oe" unicode="&#x153;" horiz-adv-x="2212" 
d="M2079 467h-869q1 -94 66.5 -171.5t204.5 -77.5q156 0 264 101l236 -121q-85 -106 -215 -166t-289 -60q-137 0 -240.5 44.5t-191.5 141.5q-93 -93 -205.5 -139.5t-244.5 -46.5q-172 0 -277.5 58t-172.5 180t-67 273q0 258 184 445.5t431 187.5q130 0 235 -50t184 -151
q94 100 212 150.5t244 50.5q144 0 264.5 -69.5t187.5 -196t67 -278.5q0 -42 -8 -105zM1814 661q-29 97 -101 151t-169 54q-203 0 -300 -205h570zM677 864q-136 0 -234.5 -105.5t-98.5 -266.5q0 -127 71.5 -200.5t192.5 -73.5q147 0 240 102q106 115 106 276
q0 113 -78.5 190.5t-198.5 77.5z" />
    <glyph glyph-name="endash" unicode="&#x2013;" horiz-adv-x="1024" 
d="M-12 469v242h1048v-242h-1048z" />
    <glyph glyph-name="emdash" unicode="&#x2014;" horiz-adv-x="2048" 
d="M-12 469v242h2072v-242h-2072z" />
    <glyph glyph-name="quotedblleft" unicode="&#x201c;" horiz-adv-x="983" 
d="M880 949h-250l16 124q18 133 58.5 222t147.5 213l86 -75q-85 -111 -116 -198h100zM474 949h-251l17 124q17 133 57.5 222t147.5 213l86 -75q-85 -111 -116 -198h100z" />
    <glyph glyph-name="quotedblright" unicode="&#x201d;" horiz-adv-x="983" 
d="M280 1508h251l-17 -125q-17 -132 -57.5 -221t-147.5 -213l-86 75q85 110 116 198h-100zM687 1508h251l-17 -125q-17 -132 -57.5 -221t-147.5 -213l-86 75q85 110 116 198h-101z" />
    <glyph glyph-name="quoteleft" unicode="&#x2018;" horiz-adv-x="573" 
d="M471 949h-251l17 124q17 133 57.5 222t147.5 213l86 -75q-85 -111 -116 -198h100z" />
    <glyph glyph-name="quoteright" unicode="&#x2019;" horiz-adv-x="573" 
d="M277 1508h251l-17 -125q-17 -132 -57.5 -221t-147.5 -213l-86 75q85 110 116 198h-100z" />
    <glyph glyph-name="divide" unicode="&#xf7;" horiz-adv-x="1124" 
d="M401 1326h322v-321h-322v321zM62 860h999v-250h-999v250zM401 466h322v-321h-322v321z" />
    <glyph glyph-name="lozenge" unicode="&#x25ca;" horiz-adv-x="1012" 
d="M549 1422l418 -713l-418 -709h-111l-391 709l391 713h111zM495 1325l-340 -616l340 -615l359 615z" />
    <glyph glyph-name="ydieresis" unicode="&#xff;" horiz-adv-x="1188" 
d="M45 1088h262l212 -646l372 646h288l-855 -1486h-282l309 546zM447 1536q52 0 87.5 -35t35.5 -84q0 -69 -48 -118t-117 -49q-56 0 -90 34.5t-34 90.5q0 64 49.5 112.5t116.5 48.5zM890 1536q52 0 87.5 -35t35.5 -84q0 -69 -48 -118t-117 -49q-56 0 -90 34.5t-34 90.5
q0 64 49.5 112.5t116.5 48.5z" />
    <glyph glyph-name="Ydieresis" unicode="&#x178;" horiz-adv-x="1270" 
d="M66 1471h279l230 -589l418 589h317l-628 -883l-79 -588h-276l81 588zM548 1865q52 0 87.5 -35t35.5 -84q0 -69 -48 -118t-117 -49q-56 0 -90 34.5t-34 90.5q0 64 49.5 112.5t116.5 48.5zM991 1865q52 0 87.5 -35t35.5 -84q0 -69 -48 -118t-117 -49q-56 0 -90 34.5
t-34 90.5q0 64 49.5 112.5t116.5 48.5z" />
    <glyph glyph-name="fraction" unicode="&#x2044;" horiz-adv-x="328" 
d="M-401 -37l988 1545h171l-988 -1545h-171z" />
    <glyph glyph-name="fraction" unicode="&#x2215;" horiz-adv-x="328" 
d="M-401 -37l988 1545h171l-988 -1545h-171z" />
    <glyph glyph-name="currency" unicode="&#xa4;" 
d="M96 425l103 104q-52 79 -72 145t-20 144q0 83 21 151.5t73 140.5l-106 104l121 124l106 -106q70 49 144 73t152 24q75 0 146 -22t145 -72l105 103l119 -124l-104 -101q53 -72 75.5 -142.5t22.5 -152.5q0 -81 -22 -149.5t-73 -139.5l104 -104l-119 -121l-105 103
q-73 -53 -144.5 -76.5t-151.5 -23.5q-79 0 -150.5 23.5t-144.5 76.5l-105 -103zM303 816q0 -132 92.5 -225t221.5 -93t221 93.5t92 227.5q0 133 -91.5 226.5t-220.5 93.5t-222 -94t-93 -229z" />
    <glyph glyph-name="guilsinglleft" unicode="&#x2039;" horiz-adv-x="491" 
d="M254 1088h254l-263 -550l108 -538h-255l-107 538z" />
    <glyph glyph-name="guilsinglright" unicode="&#x203a;" horiz-adv-x="491" 
d="M167 0h-253l263 550l-108 538h254l108 -538z" />
    <glyph glyph-name="fi" unicode="&#xf001;" horiz-adv-x="1065" 
d="M65 1088h112q30 172 87 257.5t158 138t221 52.5q165 0 271.5 -87.5t106.5 -239.5h-268q-7 83 -113 83q-76 0 -127.5 -49.5t-65.5 -154.5h163l-31 -232h-165l-121 -856h-268l119 856h-111zM741 1088h269l-153 -1088h-270z" />
    <glyph glyph-name="fi" unicode="&#xfb01;" horiz-adv-x="1065" 
d="M65 1088h112q30 172 87 257.5t158 138t221 52.5q165 0 271.5 -87.5t106.5 -239.5h-268q-7 83 -113 83q-76 0 -127.5 -49.5t-65.5 -154.5h163l-31 -232h-165l-121 -856h-268l119 856h-111zM741 1088h269l-153 -1088h-270z" />
    <glyph glyph-name="fl" unicode="&#xf002;" horiz-adv-x="1065" 
d="M65 1088h113q24 163 82 252.5t160.5 142.5t224.5 53q113 0 199 -42.5t132 -118.5t46 -162q0 -41 -16 -154l-150 -1059h-268l159 1135q6 45 6 68q0 43 -28.5 66.5t-83.5 23.5q-76 0 -127 -49t-67 -156h164l-32 -232h-165l-121 -856h-268l119 856h-111z" />
    <glyph glyph-name="fl" unicode="&#xfb02;" horiz-adv-x="1065" 
d="M65 1088h113q24 163 82 252.5t160.5 142.5t224.5 53q113 0 199 -42.5t132 -118.5t46 -162q0 -41 -16 -154l-150 -1059h-268l159 1135q6 45 6 68q0 43 -28.5 66.5t-83.5 23.5q-76 0 -127 -49t-67 -156h164l-32 -232h-165l-121 -856h-268l119 856h-111z" />
    <glyph glyph-name="daggerdbl" unicode="&#x2021;" horiz-adv-x="1147" 
d="M548 1508h271l-118 -467l463 47l-37 -267l-448 51v-317l-95 -325l468 56l-38 -277l-452 55l-14 -462h-272l115 462l-457 -55l40 277l442 -56v325l93 317l-458 -51l38 267l443 -47z" />
    <glyph glyph-name="periodcentered" unicode="&#x2219;" horiz-adv-x="573" 
d="M288 903q69 0 118.5 -49t49.5 -119q0 -69 -49.5 -118.5t-118.5 -49.5q-70 0 -119 49.5t-49 118.5q0 70 49 119t119 49z" />
    <glyph glyph-name="quotesinglbase" unicode="&#x201a;" horiz-adv-x="573" 
d="M143 286h251l-17 -125q-17 -132 -57.5 -221t-147.5 -213l-86 75q85 111 116 198h-100z" />
    <glyph glyph-name="quotedblbase" unicode="&#x201e;" horiz-adv-x="983" 
d="M144 286h251l-17 -125q-17 -132 -57.5 -221t-147.5 -213l-86 75q85 111 116 198h-100zM551 286h251l-17 -125q-17 -132 -57.5 -221t-147.5 -213l-86 75q85 111 116 198h-101z" />
    <glyph glyph-name="perthousand" unicode="&#x2030;" horiz-adv-x="2621" 
d="M1469 1536h201l-1399 -1636h-202l1197 1405q-69 -13 -137.5 -20t-136.5 -7q-95 0 -204 12q13 -55 13 -95q0 -100 -53 -193t-141.5 -143.5t-195.5 -50.5q-137 0 -224 85.5t-87 217.5q0 179 147 302q112 95 231 95q43 0 169 -24q221 -42 371 -42q118 0 231 23.5t220 70.5z
M475 1331q-82 0 -138.5 -59t-56.5 -146q0 -61 41.5 -104t103.5 -43q78 0 135 59.5t57 143.5q0 67 -39.5 108t-102.5 41zM1352 660q131 0 217.5 -87.5t86.5 -221.5q0 -101 -52.5 -193.5t-141.5 -143.5t-195 -51q-148 0 -229.5 92t-81.5 216q0 96 54.5 189.5t147 146.5
t194.5 53zM1329 488q-80 0 -136 -58t-56 -143q0 -69 42 -111t106 -42q75 0 131.5 61.5t56.5 144.5q0 68 -39.5 108t-104.5 40zM2190 660q131 0 217.5 -87.5t86.5 -221.5q0 -101 -52 -193.5t-141.5 -143.5t-195.5 -51q-147 0 -229 92t-82 216q0 96 55 189.5t147 146.5t194 53
zM2167 488q-80 0 -136 -58t-56 -143q0 -69 42 -111t107 -42q74 0 130.5 61.5t56.5 144.5q0 68 -39.5 108t-104.5 40z" />
    <glyph glyph-name="Acircumflex" unicode="&#xc2;" horiz-adv-x="1515" 
d="M770 1471h233l366 -1471h-268l-78 313h-581l-169 -313h-297zM956 573l-118 483l-259 -483h377zM835 1865h218l259 -282h-298l-90 130l-130 -130h-300z" />
    <glyph glyph-name="Ecircumflex" unicode="&#xca;" horiz-adv-x="1065" 
d="M245 1471h799l-34 -261h-520l-42 -304h522l-33 -259h-522l-52 -390h525l-35 -257h-801zM609 1865h218l259 -282h-298l-90 130l-130 -130h-300z" />
    <glyph glyph-name="Aacute" unicode="&#xc1;" horiz-adv-x="1515" 
d="M770 1471h233l366 -1471h-268l-78 313h-581l-169 -313h-297zM956 573l-118 483l-259 -483h377zM1003 2006h323l-421 -391h-196z" />
    <glyph glyph-name="Edieresis" unicode="&#xcb;" horiz-adv-x="1065" 
d="M245 1471h799l-34 -261h-520l-42 -304h522l-33 -259h-522l-52 -390h525l-35 -257h-801zM446 1865q52 0 87.5 -35t35.5 -84q0 -69 -48 -118t-117 -49q-56 0 -90 34.5t-34 90.5q0 64 49.5 112.5t116.5 48.5zM889 1865q52 0 87.5 -35t35.5 -84q0 -69 -48 -118t-117 -49
q-56 0 -90 34.5t-34 90.5q0 64 49.5 112.5t116.5 48.5z" />
    <glyph glyph-name="Egrave" unicode="&#xc8;" horiz-adv-x="1065" 
d="M245 1471h799l-34 -261h-520l-42 -304h522l-33 -259h-522l-52 -390h525l-35 -257h-801zM378 2006h322l182 -392h-195z" />
    <glyph glyph-name="Iacute" unicode="&#xcd;" horiz-adv-x="573" 
d="M256 1471h270l-203 -1471h-265zM520 2006h323l-421 -391h-196z" />
    <glyph glyph-name="Icircumflex" unicode="&#xce;" horiz-adv-x="573" 
d="M256 1471h270l-203 -1471h-265zM352 1865h218l259 -282h-298l-90 130l-130 -130h-300z" />
    <glyph glyph-name="Idieresis" unicode="&#xcf;" horiz-adv-x="573" 
d="M256 1471h270l-203 -1471h-265zM212 1865q52 0 87.5 -35t35.5 -84q0 -69 -48 -118t-117 -49q-56 0 -90 34.5t-34 90.5q0 64 49.5 112.5t116.5 48.5zM655 1865q52 0 87.5 -35t35.5 -84q0 -69 -48 -118t-117 -49q-56 0 -90 34.5t-34 90.5q0 64 49.5 112.5t116.5 48.5z" />
    <glyph glyph-name="Igrave" unicode="&#xcc;" horiz-adv-x="573" 
d="M256 1471h270l-203 -1471h-265zM121 2006h322l182 -392h-195z" />
    <glyph glyph-name="Oacute" unicode="&#xd3;" horiz-adv-x="1720" 
d="M945 1508q303 0 500 -195t197 -495q0 -230 -116.5 -433.5t-310 -312.5t-444.5 -109q-314 0 -501.5 186t-187.5 490q0 345 224 593q250 276 639 276zM935 1247q-158 0 -288.5 -76.5t-210.5 -220t-80 -296.5q0 -181 111 -307t319 -126q241 0 409.5 170t168.5 413
q0 201 -118.5 322t-310.5 121zM1105 2006h323l-421 -391h-196z" />
    <glyph glyph-name="Ocircumflex" unicode="&#xd4;" horiz-adv-x="1720" 
d="M945 1508q303 0 500 -195t197 -495q0 -230 -116.5 -433.5t-310 -312.5t-444.5 -109q-314 0 -501.5 186t-187.5 490q0 345 224 593q250 276 639 276zM935 1247q-158 0 -288.5 -76.5t-210.5 -220t-80 -296.5q0 -181 111 -307t319 -126q241 0 409.5 170t168.5 413
q0 201 -118.5 322t-310.5 121zM938 1865h218l259 -282h-298l-90 130l-130 -130h-300z" />
    <glyph glyph-name="apple" unicode="&#xf000;" horiz-adv-x="1617" 
 />
    <glyph glyph-name="Ograve" unicode="&#xd2;" horiz-adv-x="1720" 
d="M945 1508q303 0 500 -195t197 -495q0 -230 -116.5 -433.5t-310 -312.5t-444.5 -109q-314 0 -501.5 186t-187.5 490q0 345 224 593q250 276 639 276zM935 1247q-158 0 -288.5 -76.5t-210.5 -220t-80 -296.5q0 -181 111 -307t319 -126q241 0 409.5 170t168.5 413
q0 201 -118.5 322t-310.5 121zM707 2006h322l182 -392h-195z" />
    <glyph glyph-name="Uacute" unicode="&#xda;" horiz-adv-x="1311" 
d="M260 1471h275l-122 -908q-16 -119 -16 -168q0 -83 51.5 -129.5t149.5 -46.5q79 0 138 35q44 26 70.5 86.5t51.5 240.5l123 890h278l-120 -878q-37 -271 -97 -389t-173.5 -179.5t-276.5 -61.5q-220 0 -343 117t-123 320q0 88 24 260zM901 2006h323l-421 -391h-196z" />
    <glyph glyph-name="Ucircumflex" unicode="&#xdb;" horiz-adv-x="1311" 
d="M260 1471h275l-122 -908q-16 -119 -16 -168q0 -83 51.5 -129.5t149.5 -46.5q79 0 138 35q44 26 70.5 86.5t51.5 240.5l123 890h278l-120 -878q-37 -271 -97 -389t-173.5 -179.5t-276.5 -61.5q-220 0 -343 117t-123 320q0 88 24 260zM733 1865h218l259 -282h-298l-90 130
l-130 -130h-300z" />
    <glyph glyph-name="Ugrave" unicode="&#xd9;" horiz-adv-x="1311" 
d="M260 1471h275l-122 -908q-16 -119 -16 -168q0 -83 51.5 -129.5t149.5 -46.5q79 0 138 35q44 26 70.5 86.5t51.5 240.5l123 890h278l-120 -878q-37 -271 -97 -389t-173.5 -179.5t-276.5 -61.5q-220 0 -343 117t-123 320q0 88 24 260zM502 2006h322l182 -392h-195z" />
    <glyph glyph-name="dotlessi" unicode="&#x131;" horiz-adv-x="491" 
d="M158 1088h264l-146 -1088h-266z" />
    <glyph glyph-name="circumflex" unicode="&#x2c6;" horiz-adv-x="1106" 
d="M570 1536h218l259 -282h-298l-90 130l-130 -130h-300z" />
    <glyph glyph-name="tilde" unicode="&#x2dc;" horiz-adv-x="983" 
d="M248 1289l-86 165q89 57 150.5 77t123.5 20q47 0 122 -21q119 -33 167 -33q85 0 179 51l83 -155q-102 -72 -140 -86q-61 -22 -122 -22t-148 27q-71 22 -89 26q-24 4 -54 4q-98 0 -186 -53z" />
    <glyph glyph-name="macron" unicode="&#x2c9;" horiz-adv-x="860" 
d="M326 1287l31 221h569l-31 -221h-569z" />
    <glyph glyph-name="breve" unicode="&#x2d8;" horiz-adv-x="983" 
d="M180 1567h221q17 -40 51 -57q50 -25 124 -25q68 0 117.5 20.5t79.5 61.5h221q-39 -129 -153.5 -204.5t-291.5 -75.5q-185 0 -277.5 77.5t-91.5 202.5z" />
    <glyph glyph-name="dotaccent" unicode="&#x2d9;" horiz-adv-x="573" 
d="M392 1536q52 0 87.5 -35t35.5 -84q0 -69 -48 -118t-117 -49q-56 0 -90 34.5t-34 90.5q0 64 49.5 112.5t116.5 48.5z" />
    <glyph glyph-name="ring" unicode="&#x2da;" horiz-adv-x="737" 
d="M513 1731q81 0 133.5 -53t52.5 -140q0 -99 -77 -176t-176 -77q-82 0 -135.5 55t-53.5 138q0 104 75.5 178.5t180.5 74.5zM494 1603q-40 0 -69.5 -30t-29.5 -71q0 -34 20 -55t51 -21q37 0 66 30t29 70q0 34 -19.5 55.5t-47.5 21.5z" />
    <glyph glyph-name="cedilla" unicode="&#xb8;" horiz-adv-x="696" 
d="M265 14h169l-18 -44q60 -16 91 -52.5t31 -81.5q0 -86 -77.5 -152t-206.5 -66q-108 0 -216 47l54 129q71 -24 138 -24q53 0 82.5 23t29.5 57q0 24 -16.5 36t-62.5 12l-51 -2z" />
    <glyph glyph-name="hungarumlaut" unicode="&#x2dd;" horiz-adv-x="1434" 
d="M804 1679h323l-421 -392h-196zM1250 1679h323l-420 -392h-197z" />
    <glyph glyph-name="ogonek" unicode="&#x2db;" horiz-adv-x="696" 
d="M341 0h144q-165 -90 -165 -179q0 -35 25.5 -57t66.5 -22q34 0 91 27l-22 -159q-71 -15 -131 -15q-110 0 -164.5 46t-54.5 118q0 67 53 132t157 109z" />
    <glyph glyph-name="caron" unicode="&#x2c7;" horiz-adv-x="1106" 
d="M725 1254h-218l-259 282h298l90 -130l130 130h300z" />
    <glyph glyph-name="Lslash" unicode="&#x141;" horiz-adv-x="901" 
d="M476 943l260 131l-24 -187l-262 -133l-68 -501h457l-32 -253h-735l81 602l-185 -94l25 192l186 93l92 678h277z" />
    <glyph glyph-name="lslash" unicode="&#x142;" horiz-adv-x="655" 
d="M486 930l174 98l-24 -195l-176 -97l-98 -736h-266l77 577l-174 -96l27 190l172 97l98 740h266z" />
    <glyph glyph-name="Scaron" unicode="&#x160;" horiz-adv-x="1065" 
d="M1017 1266l-201 -178q-124 160 -231 160q-53 0 -88 -31.5t-35 -75.5q0 -41 32 -91t194 -221q86 -91 113 -129q65 -88 93.5 -164.5t28.5 -155.5q0 -177 -126 -297t-323 -120q-300 0 -489 285l212 171q128 -195 277 -195q71 0 119.5 46t48.5 111q0 51 -29.5 104t-168.5 200
q-147 155 -193 234q-62 107 -62 210q0 136 89 244q112 135 302 135q261 0 437 -242zM764 1583h-218l-259 282h298l90 -130l130 130h300z" />
    <glyph glyph-name="scaron" unicode="&#x161;" horiz-adv-x="901" 
d="M790 936l-127 -204q-49 73 -103 107.5t-101 34.5q-36 0 -61 -20t-25 -45q0 -24 20 -48q19 -24 115 -93q153 -110 201.5 -188.5t48.5 -170.5q0 -121 -99.5 -229t-288.5 -108q-109 0 -198.5 44t-199.5 161l165 192q112 -148 245 -148q53 0 84.5 25.5t31.5 60.5
q0 28 -24 57.5t-131 105.5q-124 88 -171 151q-66 88 -66 186q0 137 103.5 223t244.5 86q99 0 188 -47t148 -133zM622 1254h-218l-259 282h298l90 -130l130 130h300z" />
    <glyph glyph-name="Zcaron" unicode="&#x17d;" horiz-adv-x="1024" 
d="M183 1471h831l-584 -1215h463l-34 -256h-841l585 1212h-456zM744 1583h-218l-259 282h298l90 -130l130 130h300z" />
    <glyph glyph-name="zcaron" unicode="&#x17e;" horiz-adv-x="942" 
d="M87 1088h862l-557 -842h510l-34 -246h-939l555 839h-429zM643 1254h-218l-259 282h298l90 -130l130 130h300z" />
    <glyph glyph-name="brokenbar" unicode="&#xa6;" 
d="M537 744v764h158v-709zM537 -398v910l158 55v-965h-158z" />
    <glyph glyph-name="Eth" unicode="&#xd0;" horiz-adv-x="1520" 
d="M230 651h-126l23 166h125l88 654h233q330 0 490 -77.5t261 -243.5t101 -383q0 -223 -106.5 -409.5t-268.5 -272t-451 -85.5h-456zM508 651l-53 -394h91q211 0 305 35q132 50 212 171t80 299q0 146 -57 244.5t-159.5 152t-273.5 53.5h-71l-52 -395h322l-21 -166h-323z" />
    <glyph glyph-name="eth" unicode="&#xf0;" horiz-adv-x="1311" 
d="M989 1508l52 -147l-147 -46q144 -151 226.5 -340.5t82.5 -364.5q0 -273 -178.5 -455.5t-439.5 -182.5q-231 0 -379 149t-148 376q0 245 173 425t401 180q69 0 152 -23q-45 89 -107 168l-197 -58l-54 145l144 45q-59 65 -123 129h240q41 -32 80 -68zM666 862
q-146 0 -245 -105t-99 -263q0 -121 75 -197.5t194 -76.5q154 0 249.5 111t95.5 264q0 114 -76.5 190.5t-193.5 76.5z" />
    <glyph glyph-name="Yacute" unicode="&#xdd;" horiz-adv-x="1270" 
d="M66 1471h279l230 -589l418 589h317l-628 -883l-79 -588h-276l81 588zM879 2006h323l-421 -391h-196z" />
    <glyph glyph-name="yacute" unicode="&#xfd;" horiz-adv-x="1188" 
d="M45 1088h262l212 -646l372 646h288l-855 -1486h-282l309 546zM779 1677h323l-421 -391h-196z" />
    <glyph glyph-name="Thorn" unicode="&#xde;" horiz-adv-x="1147" 
d="M269 1471h277l-39 -311q197 -2 277 -27q127 -39 204.5 -135t77.5 -234q0 -133 -72.5 -241.5t-194.5 -158t-407 -54.5l-44 -310h-277zM426 571q226 0 295 46t69 138q0 51 -27.5 86t-80 49t-209.5 14z" />
    <glyph glyph-name="thorn" unicode="&#xfe;" horiz-adv-x="1352" 
d="M258 -398h-267l250 1906h267l-74 -537q87 82 162.5 113.5t169.5 31.5q217 0 344 -159t127 -369q0 -161 -81 -307t-217.5 -227.5t-284.5 -81.5q-100 0 -185 46t-139 134zM704 879q-97 0 -170.5 -44.5t-123 -138.5t-49.5 -192q0 -129 74.5 -207.5t196.5 -78.5
q142 0 241 105t99 271q0 128 -75 206.5t-193 78.5z" />
    <glyph glyph-name="minus" unicode="&#x2212;" 
d="M115 860h999v-250h-999v250z" />
    <glyph glyph-name="multiply" unicode="&#xd7;" 
d="M615 588l-317 -316l-148 147l317 317l-317 317l148 148l317 -317l316 317l148 -148l-317 -317l317 -317l-148 -147z" />
    <glyph glyph-name="onesuperior" unicode="&#xb9;" horiz-adv-x="688" 
d="M290 1489h279l-122 -756h-183l96 602h-133z" />
    <glyph glyph-name="twosuperior" unicode="&#xb2;" horiz-adv-x="688" 
d="M313 1239h-181q5 126 80 197.5t201 71.5q117 0 189.5 -64t72.5 -154q0 -70 -49.5 -146.5t-253.5 -257.5h270l-24 -153h-561l18 118q308 262 375 344q42 52 42 95q0 26 -22.5 45.5t-57.5 19.5q-40 0 -63.5 -24.5t-35.5 -91.5z" />
    <glyph glyph-name="threesuperior" unicode="&#xb3;" horiz-adv-x="688" 
d="M343 1286h-174q14 104 85.5 163t181.5 59q106 0 173 -59t67 -138q0 -102 -119 -173q102 -64 102 -168q0 -102 -88.5 -178.5t-222.5 -76.5q-83 0 -146 34.5t-95 90.5t-32 144h176q8 -115 111 -115q50 0 82 31t32 78q0 39 -35.5 65.5t-127.5 29.5l24 141q80 0 116 25.5
t36 61.5q0 23 -18.5 38t-49.5 15q-67 0 -78 -68z" />
    <glyph glyph-name="onehalf" unicode="&#xbd;" horiz-adv-x="1720" 
d="M298 1489h279l-122 -756h-183l96 602h-133zM271 -37l988 1545h171l-988 -1545h-171zM1289 506h-181q5 126 80 197.5t201 71.5q117 0 189.5 -64t72.5 -154q0 -70 -49.5 -146.5t-253.5 -257.5h270l-24 -153h-561l18 118q308 262 375 344q42 52 42 95q0 26 -22.5 45.5
t-57.5 19.5q-40 0 -63.5 -24.5t-35.5 -91.5z" />
    <glyph glyph-name="onequarter" unicode="&#xbc;" horiz-adv-x="1720" 
d="M298 1489h279l-122 -756h-183l96 602h-133zM296 -37l988 1545h171l-988 -1545h-171zM1494 775h168l-77 -488h82l-23 -147h-82l-22 -140h-166l22 140h-376l22 140zM1453 529l-216 -242h181z" />
    <glyph glyph-name="threequarters" unicode="&#xbe;" horiz-adv-x="1720" 
d="M351 1286h-174q14 104 85.5 163t181.5 59q106 0 173 -59t67 -138q0 -102 -119 -173q102 -64 102 -168q0 -102 -88.5 -178.5t-222.5 -76.5q-83 0 -146 34.5t-95 90.5t-32 144h176q8 -115 111 -115q50 0 82 31t32 78q0 39 -35.5 65.5t-127.5 29.5l24 141q80 0 116 25.5
t36 61.5q0 23 -18.5 38t-49.5 15q-67 0 -78 -68zM331 -37l988 1545h171l-988 -1545h-171zM1493 775h168l-77 -488h82l-23 -147h-82l-22 -140h-166l22 140h-376l22 140zM1452 529l-216 -242h181z" />
    <glyph glyph-name="franc" unicode="&#x20a3;" horiz-adv-x="983" 
d="M384 408h226l-20 -169h-227l-32 -239h-277l31 239h-85l21 169h86l140 1063h725l-34 -261h-447l-41 -304h448l-33 -259h-449z" />
    <glyph glyph-name="Gbreve" unicode="&#x11e;" horiz-adv-x="1720" 
d="M1541 1197l-230 -149q-100 114 -193 158.5t-211 44.5q-255 0 -415 -205q-127 -163 -127 -362q0 -196 130.5 -329t321.5 -133q142 0 258.5 68.5t190.5 205.5h-459l34 261h744q-16 -365 -228.5 -579.5t-541.5 -214.5q-358 0 -563 248q-165 199 -165 474q0 335 241.5 579
t575.5 244q124 0 242 -36t213 -101t182 -174zM548 1864h221q17 -40 51 -57q50 -25 124 -25q68 0 117.5 20.5t79.5 61.5h221q-39 -129 -153.5 -204.5t-291.5 -75.5q-185 0 -277.5 77.5t-91.5 202.5z" />
    <glyph glyph-name="gbreve" unicode="&#x11f;" horiz-adv-x="1352" 
d="M984 1088h267l-119 -871q-35 -258 -72 -342q-58 -130 -195 -215.5t-344 -85.5q-172 0 -299.5 66.5t-190.5 171.5l229 120q103 -109 268 -109q96 0 166 35t109 94.5t55 176.5q-145 -129 -329 -129q-128 0 -236.5 64.5t-170.5 181.5t-62 260q0 161 81 302.5t220.5 224.5
t291.5 83q92 0 167 -36t147 -121zM667 864q-145 0 -244.5 -102t-99.5 -251q0 -121 74 -194t198 -73q93 0 172 45t125 129t46 181q0 114 -76 189.5t-195 75.5zM364 1567h221q17 -40 51 -57q50 -25 124 -25q68 0 117.5 20.5t79.5 61.5h221q-39 -129 -153.5 -204.5
t-291.5 -75.5q-185 0 -277.5 77.5t-91.5 202.5z" />
    <glyph glyph-name="Idot" unicode="&#x130;" horiz-adv-x="573" 
d="M256 1471h270l-203 -1471h-265zM441 1833q52 0 87.5 -35t35.5 -84q0 -69 -48 -118t-117 -49q-56 0 -90 34.5t-34 90.5q0 64 49.5 112.5t116.5 48.5z" />
    <glyph glyph-name="Scedilla" unicode="&#x15e;" horiz-adv-x="1065" 
d="M1017 1266l-201 -178q-124 160 -231 160q-53 0 -88 -31.5t-35 -75.5q0 -41 32 -91t194 -221q86 -91 113 -129q65 -88 93.5 -164.5t28.5 -155.5q0 -177 -126 -297t-323 -120q-300 0 -489 285l212 171q128 -195 277 -195q71 0 119.5 46t48.5 111q0 51 -29.5 104t-168.5 200
q-147 155 -193 234q-62 107 -62 210q0 136 89 244q112 135 302 135q261 0 437 -242zM388 14h169l-18 -44q60 -16 91 -52.5t31 -81.5q0 -86 -77.5 -152t-206.5 -66q-108 0 -216 47l54 129q71 -24 138 -24q53 0 82.5 23t29.5 57q0 24 -16.5 36t-62.5 12l-51 -2z" />
    <glyph glyph-name="scedilla" unicode="&#x15f;" horiz-adv-x="901" 
d="M790 936l-127 -204q-49 73 -103 107.5t-101 34.5q-36 0 -61 -20t-25 -45q0 -24 20 -48q19 -24 115 -93q153 -110 201.5 -188.5t48.5 -170.5q0 -121 -99.5 -229t-288.5 -108q-109 0 -198.5 44t-199.5 161l165 192q112 -148 245 -148q53 0 84.5 25.5t31.5 60.5
q0 28 -24 57.5t-131 105.5q-124 88 -171 151q-66 88 -66 186q0 137 103.5 223t244.5 86q99 0 188 -47t148 -133zM271 14h169l-18 -44q60 -16 91 -52.5t31 -81.5q0 -86 -77.5 -152t-206.5 -66q-108 0 -216 47l54 129q71 -24 138 -24q53 0 82.5 23t29.5 57q0 24 -16.5 36
t-62.5 12l-51 -2z" />
    <glyph glyph-name="Cacute" unicode="&#x106;" horiz-adv-x="1597" 
d="M1524 1281l-201 -186q-65 75 -159 115.5t-204 40.5q-154 0 -295 -79t-219.5 -209t-78.5 -277q0 -200 138 -332.5t354 -132.5q231 0 400 134l163 -215q-251 -177 -581 -177q-232 0 -394.5 88t-261 258.5t-98.5 369.5q0 213 116.5 408.5t315.5 308t434 112.5
q330 0 571 -227zM1056 1974h323l-421 -391h-196z" />
    <glyph glyph-name="cacute" unicode="&#x107;" horiz-adv-x="1311" 
d="M1187 863l-226 -123q-96 122 -258 122q-109 0 -193 -46.5t-134 -134.5t-50 -186q0 -126 79 -202t217 -76q191 0 293 129l210 -148q-89 -106 -221.5 -166t-295.5 -60q-254 0 -400.5 140t-146.5 370q0 263 181 448.5t466 185.5q321 0 479 -253zM840 1677h323l-421 -391
h-196z" />
    <glyph glyph-name="Ccaron" unicode="&#x10c;" horiz-adv-x="1597" 
d="M1524 1281l-201 -186q-65 75 -159 115.5t-204 40.5q-154 0 -295 -79t-219.5 -209t-78.5 -277q0 -200 138 -332.5t354 -132.5q231 0 400 134l163 -215q-251 -177 -581 -177q-232 0 -394.5 88t-261 258.5t-98.5 369.5q0 213 116.5 408.5t315.5 308t434 112.5
q330 0 571 -227zM1067 1583h-218l-259 282h298l90 -130l130 130h300z" />
    <glyph glyph-name="ccaron" unicode="&#x10d;" horiz-adv-x="1311" 
d="M1187 863l-226 -123q-96 122 -258 122q-109 0 -193 -46.5t-134 -134.5t-50 -186q0 -126 79 -202t217 -76q191 0 293 129l210 -148q-89 -106 -221.5 -166t-295.5 -60q-254 0 -400.5 140t-146.5 370q0 263 181 448.5t466 185.5q321 0 479 -253zM827 1254h-218l-259 282h298
l90 -130l130 130h300z" />
    <glyph glyph-name="dmacron" unicode="&#x111;" horiz-adv-x="1352" 
d="M1291 1391h180l-19 -158h-182l-161 -1233h-264l15 117q-87 -81 -162.5 -113t-169.5 -32q-216 0 -343.5 159t-127.5 370q0 161 81 306.5t217.5 227t285.5 81.5q100 0 184.5 -46t139.5 -134l38 297h-343l18 158h346l15 117h267zM590 210q98 0 171 44t122.5 138t49.5 192
q0 129 -74.5 207.5t-196.5 78.5q-142 0 -241 -105t-99 -271q0 -128 75 -206t193 -78z" />
    <glyph glyph-name="overscore" unicode="&#xaf;" horiz-adv-x="1024" 
d="M103 1685h1048v-102h-1048v102z" />
    <glyph glyph-name="middot" unicode="&#xb7;" horiz-adv-x="682" 
d="M713 874q52 0 87.5 -35t35.5 -84q0 -69 -48 -118t-117 -49q-56 0 -90 34.5t-34 90.5q0 64 49.5 112.5t116.5 48.5z" />
    <glyph glyph-name="foursuperior" unicode="&#xf003;" horiz-adv-x="688" 
d="M518 1508h168l-77 -488h82l-23 -147h-82l-22 -140h-166l22 140h-376l22 140zM477 1262l-216 -242h181z" />
    <glyph glyph-name="Abreve" unicode="&#x102;" horiz-adv-x="1515" 
d="M770 1471h233l366 -1471h-268l-78 313h-581l-169 -313h-297zM956 573l-118 483l-259 -483h377zM568 1896h221q17 -40 51 -57q50 -25 124 -25q68 0 117.5 20.5t79.5 61.5h221q-39 -129 -153.5 -204.5t-291.5 -75.5q-185 0 -277.5 77.5t-91.5 202.5z" />
    <glyph glyph-name="abreve" unicode="&#x103;" horiz-adv-x="1352" 
d="M984 1088h267l-142 -1088h-264l15 117q-87 -81 -162.5 -113t-169.5 -32q-216 0 -343.5 159t-127.5 370q0 161 81 306.5t217.5 227t285.5 81.5q100 0 184.5 -46t139.5 -134zM590 210q98 0 171 44t122.5 138t49.5 192q0 129 -74.5 207.5t-196.5 78.5q-142 0 -241 -105
t-99 -271q0 -128 75 -206t193 -78zM364 1567h221q17 -40 51 -57q50 -25 124 -25q68 0 117.5 20.5t79.5 61.5h221q-39 -129 -153.5 -204.5t-291.5 -75.5q-185 0 -277.5 77.5t-91.5 202.5z" />
    <glyph glyph-name="Aogonek" unicode="&#x104;" horiz-adv-x="1515" 
d="M770 1471h233l366 -1471h-268l-78 313h-581l-169 -313h-297zM956 573l-118 483l-259 -483h377zM1241 0h144q-165 -90 -165 -179q0 -35 25.5 -57t66.5 -22q34 0 91 27l-22 -159q-71 -15 -131 -15q-110 0 -164.5 46t-54.5 118q0 67 53 132t157 109z" />
    <glyph glyph-name="aogonek" unicode="&#x105;" horiz-adv-x="1352" 
d="M984 1088h267l-142 -1088h-264l15 117q-87 -81 -162.5 -113t-169.5 -32q-216 0 -343.5 159t-127.5 370q0 161 81 306.5t217.5 227t285.5 81.5q100 0 184.5 -46t139.5 -134zM590 210q98 0 171 44t122.5 138t49.5 192q0 129 -74.5 207.5t-196.5 78.5q-142 0 -241 -105
t-99 -271q0 -128 75 -206t193 -78zM941 0h144q-165 -90 -165 -179q0 -35 25.5 -57t66.5 -22q34 0 91 27l-22 -159q-71 -15 -131 -15q-110 0 -164.5 46t-54.5 118q0 67 53 132t157 109z" />
    <glyph glyph-name="Dcaron" unicode="&#x10e;" horiz-adv-x="1434" 
d="M267 1471h234q329 0 489.5 -77.5t261 -243.5t100.5 -383q0 -223 -106.5 -409.5t-268.5 -272t-450 -85.5h-457zM510 1212l-127 -955h91q210 0 304 35q132 50 212 171t80 299q0 146 -56.5 244.5t-159.5 152t-274 53.5h-70zM875 1583h-218l-259 282h298l90 -130l130 130h300
z" />
    <glyph glyph-name="dcaron" unicode="&#x10f;" horiz-adv-x="1448" 
d="M1039 1508h267l-197 -1508h-264l15 117q-146 -145 -332 -145q-217 0 -344 159.5t-127 369.5q0 250 174 432.5t410 182.5q212 0 324 -180zM590 210q161 0 252 116.5t91 257.5q0 123 -72 204.5t-199 81.5q-141 0 -240.5 -104.5t-99.5 -271.5q0 -122 72 -203t196 -81z
M1381 1508h213l-14 -106q-12 -88 -43.5 -173.5t-131.5 -195.5l-73 64q75 96 99 168h-86z" />
    <glyph glyph-name="Dslash" unicode="&#x110;" horiz-adv-x="1520" 
d="M230 651h-126l23 166h125l88 654h233q330 0 490 -77.5t261 -243.5t101 -383q0 -223 -106.5 -409.5t-268.5 -272t-451 -85.5h-456zM508 651l-53 -394h91q211 0 305 35q132 50 212 171t80 299q0 146 -57 244.5t-159.5 152t-273.5 53.5h-71l-52 -395h322l-21 -166h-323z" />
    <glyph glyph-name="Eogonek" unicode="&#x118;" horiz-adv-x="1065" 
d="M245 1471h799l-34 -261h-520l-42 -304h522l-33 -259h-522l-52 -390h525l-35 -257h-801zM641 0h144q-165 -90 -165 -179q0 -35 25.5 -57t66.5 -22q34 0 91 27l-22 -159q-71 -15 -131 -15q-110 0 -164.5 46t-54.5 118q0 67 53 132t157 109z" />
    <glyph glyph-name="eogonek" unicode="&#x119;" horiz-adv-x="1311" 
d="M861 319l235 -122q-79 -104 -209.5 -164.5t-289.5 -60.5q-249 0 -392.5 140t-143.5 372q0 265 179.5 448.5t433.5 183.5q153 0 272.5 -67t188.5 -195t69 -278q0 -47 -10 -110h-868q4 -113 74.5 -180t194.5 -67q150 0 266 100zM929 662q-30 100 -100 151.5t-169 51.5
q-98 0 -177 -53t-120 -150h566zM641 0h144q-165 -90 -165 -179q0 -35 25.5 -57t66.5 -22q34 0 91 27l-22 -159q-71 -15 -131 -15q-110 0 -164.5 46t-54.5 118q0 67 53 132t157 109z" />
    <glyph glyph-name="Ecaron" unicode="&#x11a;" horiz-adv-x="1065" 
d="M245 1471h799l-34 -261h-520l-42 -304h522l-33 -259h-522l-52 -390h525l-35 -257h-801zM764 1583h-218l-259 282h298l90 -130l130 130h300z" />
    <glyph glyph-name="ecaron" unicode="&#x11b;" horiz-adv-x="1311" 
d="M861 319l235 -122q-79 -104 -209.5 -164.5t-289.5 -60.5q-249 0 -392.5 140t-143.5 372q0 265 179.5 448.5t433.5 183.5q153 0 272.5 -67t188.5 -195t69 -278q0 -47 -10 -110h-868q4 -113 74.5 -180t194.5 -67q150 0 266 100zM929 662q-30 100 -100 151.5t-169 51.5
q-98 0 -177 -53t-120 -150h566zM827 1254h-218l-259 282h298l90 -130l130 130h300z" />
    <glyph glyph-name="IJ" unicode="&#x132;" horiz-adv-x="1556" 
d="M256 1471h270l-203 -1471h-265zM1216 1471h277l-139 -1038q-24 -182 -63.5 -278.5t-126.5 -144t-188 -47.5q-143 0 -261 83t-188 217l219 133q110 -171 216 -171q52 0 75.5 40.5t36.5 152.5z" />
    <glyph glyph-name="ij" unicode="&#x133;" horiz-adv-x="1024" 
d="M324 1533q68 0 116.5 -48t48.5 -117q0 -68 -48.5 -116.5t-116.5 -48.5q-69 0 -117 48.5t-48 116.5t48.5 116.5t116.5 48.5zM840 1533q68 0 116.5 -48t48.5 -117q0 -68 -48.5 -116.5t-116.5 -48.5q-69 0 -117.5 48.5t-48.5 116.5q0 70 49 117.5t117 47.5zM158 1088h264
l-146 -1088h-266zM669 1088h266l-130 -963q-34 -256 -69.5 -351.5t-107.5 -147.5t-168 -52q-73 0 -164 39l32 240q43 -29 83 -29q49 0 76 52t48 214z" />
    <glyph glyph-name="Lacute" unicode="&#x139;" horiz-adv-x="901" 
d="M271 1471h277l-166 -1218h457l-32 -253h-735zM585 2006h323l-421 -391h-196z" />
    <glyph glyph-name="lacute" unicode="&#x13a;" horiz-adv-x="491" 
d="M214 1508h266l-200 -1508h-266zM540 2006h323l-421 -391h-196z" />
    <glyph glyph-name="Lcaron" unicode="&#x13d;" horiz-adv-x="901" 
d="M271 1471h277l-166 -1218h457l-32 -253h-735zM671 1471h250l-16 -125q-13 -99 -49.5 -200.5t-155.5 -234.5l-87 76q88 112 117 197h-101z" />
    <glyph glyph-name="lcaron" unicode="&#x13e;" horiz-adv-x="592" 
d="M213 1508h266l-200 -1508h-266zM554 1508h213l-14 -106q-12 -88 -43.5 -173.5t-131.5 -195.5l-73 64q75 96 99 168h-86z" />
    <glyph glyph-name="Ldot" unicode="&#x13f;" horiz-adv-x="901" 
d="M271 1471h277l-166 -1218h457l-32 -253h-735zM713 874q52 0 87.5 -35t35.5 -84q0 -69 -48 -118t-117 -49q-56 0 -90 34.5t-34 90.5q0 64 49.5 112.5t116.5 48.5z" />
    <glyph glyph-name="ldot" unicode="&#x140;" horiz-adv-x="702" 
d="M214 1508h266l-200 -1508h-266zM588 874q52 0 87.5 -35t35.5 -84q0 -69 -48 -118t-117 -49q-56 0 -90 34.5t-34 90.5q0 64 49.5 112.5t116.5 48.5z" />
    <glyph glyph-name="Nacute" unicode="&#x143;" horiz-adv-x="1515" 
d="M266 1471h242l533 -1000l135 1000h269l-198 -1471h-236l-540 1011l-135 -1011h-265zM1007 2006h323l-421 -391h-196z" />
    <glyph glyph-name="nacute" unicode="&#x144;" 
d="M193 1088h266l-16 -110q153 138 318 138q141 0 231 -89.5t90 -225.5q0 -64 -17 -191l-81 -610h-265l79 595q12 92 12 138q0 66 -37.5 101.5t-106.5 35.5q-67 0 -134 -46.5t-103 -129t-66 -309.5l-51 -385h-266zM815 1677h323l-421 -391h-196z" />
    <glyph glyph-name="Ncaron" unicode="&#x147;" horiz-adv-x="1515" 
d="M266 1471h242l533 -1000l135 1000h269l-198 -1471h-236l-540 1011l-135 -1011h-265zM987 1583h-218l-259 282h298l90 -130l130 130h300z" />
    <glyph glyph-name="ncaron" unicode="&#x148;" 
d="M193 1088h266l-16 -110q153 138 318 138q141 0 231 -89.5t90 -225.5q0 -64 -17 -191l-81 -610h-265l79 595q12 92 12 138q0 66 -37.5 101.5t-106.5 35.5q-67 0 -134 -46.5t-103 -129t-66 -309.5l-51 -385h-266zM825 1254h-218l-259 282h298l90 -130l130 130h300z" />
    <glyph glyph-name="napostrophe" unicode="&#x149;" horiz-adv-x="1294" 
d="M258 1088h266l-16 -110q153 138 318 138q141 0 231 -89.5t90 -225.5q0 -64 -17 -191l-81 -610h-265l79 595q12 92 12 138q0 66 -37.5 101.5t-106.5 35.5q-67 0 -134 -46.5t-103 -129t-66 -309.5l-51 -385h-266zM33 1508h251l-17 -125q-17 -132 -57.5 -221t-147.5 -213
l-86 75q85 110 116 198h-100z" />
    <glyph glyph-name="Odblacute" unicode="&#x150;" horiz-adv-x="1720" 
d="M945 1508q303 0 500 -195t197 -495q0 -230 -116.5 -433.5t-310 -312.5t-444.5 -109q-314 0 -501.5 186t-187.5 490q0 345 224 593q250 276 639 276zM935 1247q-158 0 -288.5 -76.5t-210.5 -220t-80 -296.5q0 -181 111 -307t319 -126q241 0 409.5 170t168.5 413
q0 201 -118.5 322t-310.5 121zM979 2008h323l-421 -392h-196zM1425 2008h323l-420 -392h-197z" />
    <glyph glyph-name="odblacute" unicode="&#x151;" horiz-adv-x="1311" 
d="M684 1116q145 0 263.5 -67t184.5 -190t66 -276q0 -254 -181 -432.5t-448 -178.5q-232 0 -370 140.5t-138 367.5q0 274 187 455t436 181zM665 863q-164 0 -251.5 -117.5t-87.5 -254.5q0 -122 71.5 -196.5t190.5 -74.5q169 0 257.5 113.5t88.5 259.5q0 120 -75 195t-194 75
zM654 1679h323l-421 -392h-196zM1100 1679h323l-420 -392h-197z" />
    <glyph glyph-name="Racute" unicode="&#x154;" horiz-adv-x="1188" 
d="M281 1471h257q238 0 335 -41q121 -51 182.5 -141.5t61.5 -214.5q0 -153 -91 -262.5t-275 -152.5l321 -659h-286l-314 642h-26l-85 -642h-276zM478 883q227 1 295.5 46.5t68.5 136.5q0 52 -27.5 87t-79.5 49t-211 14zM777 2006h323l-421 -391h-196z" />
    <glyph glyph-name="racute" unicode="&#x155;" horiz-adv-x="655" 
d="M126 1088h238l-19 -148q107 176 257 176q36 0 75 -19l-96 -241q-30 9 -44 9q-77 0 -137.5 -90.5t-95.5 -365.5l-52 -409h-268zM565 1677h323l-421 -391h-196z" />
    <glyph glyph-name="Rcaron" unicode="&#x158;" horiz-adv-x="1188" 
d="M281 1471h257q238 0 335 -41q121 -51 182.5 -141.5t61.5 -214.5q0 -153 -91 -262.5t-275 -152.5l321 -659h-286l-314 642h-26l-85 -642h-276zM478 883q227 1 295.5 46.5t68.5 136.5q0 52 -27.5 87t-79.5 49t-211 14zM825 1583h-218l-259 282h298l90 -130l130 130h300z
" />
    <glyph glyph-name="rcaron" unicode="&#x159;" horiz-adv-x="655" 
d="M126 1088h238l-19 -148q107 176 257 176q36 0 75 -19l-96 -241q-30 9 -44 9q-77 0 -137.5 -90.5t-95.5 -365.5l-52 -409h-268zM565 1254h-218l-259 282h298l90 -130l130 130h300z" />
    <glyph glyph-name="Sacute" unicode="&#x15a;" horiz-adv-x="1065" 
d="M1017 1266l-201 -178q-124 160 -231 160q-53 0 -88 -31.5t-35 -75.5q0 -41 32 -91t194 -221q86 -91 113 -129q65 -88 93.5 -164.5t28.5 -155.5q0 -177 -126 -297t-323 -120q-300 0 -489 285l212 171q128 -195 277 -195q71 0 119.5 46t48.5 111q0 51 -29.5 104t-168.5 200
q-147 155 -193 234q-62 107 -62 210q0 136 89 244q112 135 302 135q261 0 437 -242zM777 2006h323l-421 -391h-196z" />
    <glyph glyph-name="sacute" unicode="&#x15b;" horiz-adv-x="901" 
d="M790 936l-127 -204q-49 73 -103 107.5t-101 34.5q-36 0 -61 -20t-25 -45q0 -24 20 -48q19 -24 115 -93q153 -110 201.5 -188.5t48.5 -170.5q0 -121 -99.5 -229t-288.5 -108q-109 0 -198.5 44t-199.5 161l165 192q112 -148 245 -148q53 0 84.5 25.5t31.5 60.5
q0 28 -24 57.5t-131 105.5q-124 88 -171 151q-66 88 -66 186q0 137 103.5 223t244.5 86q99 0 188 -47t148 -133zM590 1677h323l-421 -391h-196z" />
    <glyph glyph-name="Tcedilla" unicode="&#x162;" horiz-adv-x="860" 
d="M79 1471h898l-32 -262h-313l-159 -1209h-274l159 1209h-313zM239 -121h179l-4 -29q-18 -128 -43 -176.5t-95 -101.5l-45 54q51 38 73 88h-89z" />
    <glyph glyph-name="tcedilla" unicode="&#x163;" horiz-adv-x="614" 
d="M249 1492h266l-56 -404h169l-32 -230h-168l-117 -858h-267l118 858h-131l31 230h131zM83 -121h179l-4 -29q-18 -128 -43 -176.5t-95 -101.5l-45 54q51 38 73 88h-89z" />
    <glyph glyph-name="Tcaron" unicode="&#x164;" horiz-adv-x="860" 
d="M79 1471h898l-32 -262h-313l-159 -1209h-274l159 1209h-313zM625 1583h-218l-259 282h298l90 -130l130 130h300z" />
    <glyph glyph-name="tcaron" unicode="&#x165;" horiz-adv-x="742" 
d="M675 1508h213l-5 -32q-17 -114 -51.5 -192.5t-115.5 -167.5l-74 64q68 87 91 159h-85zM249 1492h266l-56 -404h169l-32 -230h-168l-117 -858h-267l118 858h-131l31 230h131z" />
    <glyph glyph-name="Uring" unicode="&#x16e;" horiz-adv-x="1311" 
d="M260 1471h275l-122 -908q-16 -119 -16 -168q0 -83 51.5 -129.5t149.5 -46.5q79 0 138 35q44 26 70.5 86.5t51.5 240.5l123 890h278l-120 -878q-37 -271 -97 -389t-173.5 -179.5t-276.5 -61.5q-220 0 -343 117t-123 320q0 88 24 260zM794 2060q81 0 133.5 -53t52.5 -140
q0 -99 -77 -176t-176 -77q-82 0 -135.5 55t-53.5 138q0 104 75.5 178.5t180.5 74.5zM775 1932q-40 0 -69.5 -30t-29.5 -71q0 -34 20 -55t51 -21q37 0 66 30t29 70q0 34 -19.5 55.5t-47.5 21.5z" />
    <glyph glyph-name="uring" unicode="&#x16f;" 
d="M195 1088h264l-73 -556q-12 -92 -12 -138q0 -72 50 -121t130 -49q103 0 158.5 63t81.5 256l75 545h264l-79 -585q-27 -198 -90.5 -306.5t-168.5 -166.5t-247 -58q-200 0 -318 115.5t-118 298.5q0 112 25 288zM688 1731q81 0 133.5 -53t52.5 -140q0 -99 -77 -176t-176 -77
q-82 0 -135.5 55t-53.5 138q0 104 75.5 178.5t180.5 74.5zM669 1603q-40 0 -69.5 -30t-29.5 -71q0 -34 20 -55t51 -21q37 0 66 30t29 70q0 34 -19.5 55.5t-47.5 21.5z" />
    <glyph glyph-name="Udblacute" unicode="&#x170;" horiz-adv-x="1311" 
d="M260 1471h275l-122 -908q-16 -119 -16 -168q0 -83 51.5 -129.5t149.5 -46.5q79 0 138 35q44 26 70.5 86.5t51.5 240.5l123 890h278l-120 -878q-37 -271 -97 -389t-173.5 -179.5t-276.5 -61.5q-220 0 -343 117t-123 320q0 88 24 260zM804 2008h323l-421 -392h-196z
M1250 2008h323l-420 -392h-197z" />
    <glyph glyph-name="udblacute" unicode="&#x171;" 
d="M195 1088h264l-73 -556q-12 -92 -12 -138q0 -72 50 -121t130 -49q103 0 158.5 63t81.5 256l75 545h264l-79 -585q-27 -198 -90.5 -306.5t-168.5 -166.5t-247 -58q-200 0 -318 115.5t-118 298.5q0 112 25 288zM679 1679h323l-421 -392h-196zM1125 1679h323l-420 -392h-197
z" />
    <glyph glyph-name="Zacute" unicode="&#x179;" horiz-adv-x="1024" 
d="M183 1471h831l-584 -1215h463l-34 -256h-841l585 1212h-456zM740 2006h323l-421 -391h-196z" />
    <glyph glyph-name="zacute" unicode="&#x17a;" horiz-adv-x="942" 
d="M87 1088h862l-557 -842h510l-34 -246h-939l555 839h-429zM615 1677h323l-421 -391h-196z" />
    <glyph glyph-name="Zdot" unicode="&#x17b;" horiz-adv-x="1024" 
d="M183 1471h831l-584 -1215h463l-34 -256h-841l585 1212h-456zM592 1865q52 0 87.5 -35t35.5 -84q0 -69 -48 -118t-117 -49q-56 0 -90 34.5t-34 90.5q0 64 49.5 112.5t116.5 48.5z" />
    <glyph glyph-name="zdot" unicode="&#x17c;" horiz-adv-x="942" 
d="M87 1088h862l-557 -842h510l-34 -246h-939l555 839h-429zM492 1536q52 0 87.5 -35t35.5 -84q0 -69 -48 -118t-117 -49q-56 0 -90 34.5t-34 90.5q0 64 49.5 112.5t116.5 48.5z" />
    <glyph glyph-name="noGamma" unicode="&#xf100;" horiz-adv-x="1101" 
d="M167 1467h900v-228h-599v-1239h-301v1467z" />
    <glyph glyph-name="noTheta" unicode="&#xf101;" horiz-adv-x="1635" 
d="M828 1503q326 0 518 -194.5t192 -564.5q0 -390 -192.5 -587.5t-510.5 -197.5q-366 0 -552.5 206.5t-186.5 569.5q0 344 181 556t551 212zM828 1290q-201 0 -310 -130t-109 -437q0 -290 111.5 -419t296.5 -129q125 0 221.5 61.5t143.5 183t47 310.5q0 325 -118.5 442.5
t-282.5 117.5zM559 865h521v-231h-521v231z" />
    <glyph glyph-name="noPhi" unicode="&#xf102;" horiz-adv-x="1896" 
d="M794 1503h303v-168q703 -34 703 -605q0 -302 -189 -456t-513 -161v-288h-304v288q-362 15 -530 175t-168 432q0 161 56 289.5t206.5 220t435.5 107.5v166zM794 1125q-141 -7 -231 -70t-123.5 -149t-33.5 -180q0 -89 33 -178t122 -153t233 -70v800zM1097 1123v-798
q119 12 202 51.5t135.5 133t52.5 216.5q0 177 -103.5 283.5t-286.5 113.5z" />
    <glyph glyph-name="noalpha" unicode="&#xf103;" horiz-adv-x="1352" 
d="M952 228q-137 -256 -408 -256q-209 0 -334 140.5t-125 393.5q0 239 128.5 406.5t351.5 167.5q239 0 381 -230q11 86 45 201h284q-70 -222 -70 -490q0 -298 86 -561h-285q-38 118 -54 228zM654 894q-133 0 -202.5 -99t-69.5 -277q0 -183 75.5 -267.5t188.5 -84.5
q128 0 204 100t76 278q0 157 -71 253.5t-201 96.5z" />
    <glyph glyph-name="nodelta" unicode="&#xf104;" horiz-adv-x="1347" 
d="M625 958q-232 176 -232 337q0 115 106 187.5t312 72.5q94 0 264 -35v-191q-120 27 -203 27q-187 0 -187 -94q0 -39 35.5 -79t140.5 -117q213 -155 307 -281t94 -300q0 -227 -153.5 -370t-421.5 -143q-299 0 -450.5 148.5t-151.5 362.5q0 215 143.5 347.5t396.5 127.5z
M677 816q-294 0 -294 -339q0 -144 74.5 -231.5t214.5 -87.5q142 0 217.5 90.5t75.5 250.5q0 147 -76 232t-212 85z" />
    <glyph glyph-name="noepsilon" unicode="&#xf105;" horiz-adv-x="1113" 
d="M1027 -3q-113 -25 -267 -25q-214 0 -365.5 66.5t-230.5 195t-79 289.5q0 243 167 400t500 157q135 0 256 -27v-199q-120 28 -249 28q-152 0 -252.5 -67.5t-116.5 -183.5h613v-187h-613q39 -274 399 -274q116 0 238 25v-198z" />
    <glyph glyph-name="nosigma" unicode="&#xf106;" horiz-adv-x="1509" 
d="M1146 861q113 -129 113 -325q0 -247 -159.5 -405.5t-426.5 -158.5q-269 0 -428.5 160t-159.5 406q0 243 167 392.5t389 149.5q47 0 132 -7q107 -10 168 -10h533v-202h-328zM667 911q-136 0 -211.5 -95.5t-75.5 -287.5q0 -181 77 -275.5t220 -94.5q128 0 208 98t80 295
q0 172 -81 266t-217 94z" />
    <glyph glyph-name="notau" unicode="&#xf107;" horiz-adv-x="1110" 
d="M34 1063h1043v-204h-377v-859h-290v859h-376v204z" />
    <glyph glyph-name="nophi" unicode="&#xf108;" horiz-adv-x="1659" 
d="M683 1331h290v-255q319 -15 460 -166.5t141 -382.5q0 -212 -135.5 -365t-461.5 -175v-376h-296v374q-308 19 -452 164.5t-144 381.5q0 177 82.5 303t195 172t320.5 73v252zM684 894q-302 -14 -302 -370q0 -178 83 -267.5t219 -89.5v727zM975 894v-727q302 16 302 371
q0 158 -76 256t-226 100z" />
    <glyph glyph-name="underscoredbl" unicode="&#x2017;" horiz-adv-x="1024" 
d="M-12 -113h1048v-102h-1048v102zM-12 -290h1048v-102h-1048v102z" />
    <glyph glyph-name="minute" unicode="&#x2032;" horiz-adv-x="451" 
d="M354 1004h-156l16 504h266z" />
    <glyph glyph-name="second" unicode="&#x2033;" horiz-adv-x="737" 
d="M702 1004h-156l16 504h267zM291 1004h-156l16 504h267z" />
    <glyph glyph-name="exclamdbl" unicode="&#x203c;" horiz-adv-x="1165" 
d="M260 1508h275l-151 -1074h-275zM851 1508h275l-151 -1074h-275zM214 308q68 0 118 -48t50 -120q0 -69 -49 -118.5t-119 -49.5t-119 49.5t-49 118.5q0 72 50 120t118 48zM805 308q69 0 118.5 -49t49.5 -119q0 -69 -49.5 -118.5t-118.5 -49.5t-118.5 49.5t-49.5 118.5
q0 70 49.5 119t118.5 49z" />
    <glyph glyph-name="nsuperior" unicode="&#x207f;" horiz-adv-x="684" 
d="M152 1256h197l-8 -49q74 66 154 66q83 0 133 -63t50 -166q0 -41 -8 -107l-49 -362h-200l49 362q9 62 9 88q0 72 -56 72q-35 0 -66 -30t-41.5 -70t-30.5 -179l-36 -243h-197z" />
    <glyph glyph-name="peseta" unicode="&#x20a7;" horiz-adv-x="2385" 
d="M1105 1088h102l56 404h265l-55 -404h318q79 28 147 28q212 0 336 -180l-127 -204q-95 142 -204 142q-34 0 -60 -19t-26 -46q0 -26 21.5 -50.5t112.5 -90.5q154 -110 202.5 -188.5t48.5 -170.5q0 -129 -105.5 -233t-282.5 -104q-118 0 -207.5 48.5t-190.5 156.5l164 192
q113 -148 247 -148q49 0 81.5 24.5t32.5 61.5q0 33 -28.5 63.5t-125.5 99.5q-124 88 -180.5 163.5t-56.5 173.5q0 24 4 51h-152l-117 -858h-267l118 858h-128q-64 -114 -187 -174.5t-429 -62.5l-84 -621h-277l198 1471h259q202 0 306.5 -30.5t185 -122t85.5 -230.5zM465 881
q252 0 308 55t56 129q0 33 -12 60.5t-35.5 46t-62.5 29.5t-99 12t-108 1z" />
    <glyph glyph-name="afii61248" unicode="&#x2105;" horiz-adv-x="1896" 
d="M763 1337l-169 -85q-44 76 -123 76q-77 0 -128 -60t-51 -149q0 -65 34 -107.5t96 -42.5q92 0 143 80l159 -102q-116 -153 -312 -153q-154 0 -235 92t-81 228q0 163 106.5 278.5t274.5 115.5q188 0 286 -171zM372 -37l988 1545h171l-989 -1545h-170zM1488 698
q131 0 215.5 -92.5t84.5 -241.5q0 -153 -102.5 -267t-261.5 -114q-141 0 -218.5 92t-77.5 227q0 167 107 281.5t253 114.5zM1474 518q-71 0 -110.5 -65.5t-39.5 -143.5q0 -68 31 -108.5t83 -40.5q74 0 114 62t40 148q0 65 -32.5 106.5t-85.5 41.5z" />
    <glyph glyph-name="afii61289" unicode="&#x2113;" horiz-adv-x="983" 
d="M46 409l-31 248q89 31 170 64q38 443 159.5 606.5t302.5 163.5q135 0 236 -94.5t101 -243.5q0 -155 -121 -302t-410 -282q-24 -157 -24 -252q0 -128 98 -128q124 0 319 122l-34 -258q-134 -78 -279 -78q-183 0 -282 109.5t-99 262.5q0 30 5 99zM492 868q252 151 252 306
q0 41 -20.5 68.5t-51.5 27.5q-53 0 -96 -61t-84 -341z" />
    <glyph glyph-name="arrowleft" unicode="&#x2190;" horiz-adv-x="2048" 
d="M492 876h76q-81 -170 -195 -309h1595v-101h-1595q102 -102 198 -309h-78q-223 253 -414 341v45q177 71 413 333z" />
    <glyph glyph-name="arrowup" unicode="&#x2191;" horiz-adv-x="1024" 
d="M153 1050q262 236 333 413h46q87 -192 340 -415v-77q-207 96 -309 197v-1597h-101v1597q-139 -114 -309 -195v77z" />
    <glyph glyph-name="arrowright" unicode="&#x2192;" horiz-adv-x="2048" 
d="M1555 876q237 -262 413 -333v-45q-191 -88 -414 -341h-77q95 207 197 309h-1595v101h1595q-114 139 -195 309h76z" />
    <glyph glyph-name="arrowdown" unicode="&#x2193;" horiz-adv-x="1024" 
d="M153 -16v76q170 -81 309 -195v1598h101v-1598q102 102 309 197v-77q-253 -223 -340 -414h-46q-71 176 -333 413z" />
    <glyph glyph-name="arrowboth" unicode="&#x2194;" horiz-adv-x="2048" 
d="M1968 540v-45q-181 -79 -406 -337h-80q69 172 194 311h-1305q125 -139 194 -311h-80q-224 258 -406 337v45q182 79 406 338h80q-69 -172 -194 -311h1305q-125 139 -194 311h80q225 -259 406 -338z" />
    <glyph glyph-name="arrowupdn" unicode="&#x2195;" horiz-adv-x="1024" 
d="M489 1463h45q79 -182 337 -407v-80q-171 69 -311 195v-1306q140 126 311 194v-79q-258 -225 -337 -407h-45q-79 182 -337 407v79q171 -68 311 -194v1306q-140 -126 -311 -195v80q258 225 337 407z" />
    <glyph glyph-name="arrowupdnbse" unicode="&#x21a8;" horiz-adv-x="1024" 
d="M489 1463h45q79 -182 337 -407v-80q-171 69 -311 195v-1306q140 126 311 194v-79q-258 -225 -337 -407h-45q-79 182 -337 407v79q171 -68 311 -194v1306q-140 -126 -311 -195v80q258 225 337 407zM154 -522h717v-98h-717v98z" />
    <glyph glyph-name="orthogonal" unicode="&#x221f;" horiz-adv-x="2005" 
d="M362 1279h100v-1179h1181v-100h-1281v1279z" />
    <glyph glyph-name="intersection" unicode="&#x2229;" horiz-adv-x="1206" 
d="M239 0h-110v621l2 238q1 116 18.5 209t58.5 169t106 135.5t139.5 89.5t149.5 30q118 0 225 -68.5t165 -174t71.5 -224t13.5 -404.5v-621h-110v628q0 243 -10 348.5t-52 190t-127.5 139.5t-175.5 55t-174.5 -55t-126 -137t-52.5 -189.5t-11 -351.5v-628z" />
    <glyph glyph-name="equivalence" unicode="&#x2261;" 
d="M115 1288h999v-250h-999v250zM115 860h999v-250h-999v250zM115 432h999v-250h-999v250z" />
    <glyph glyph-name="H22073" unicode="&#x25a1;" horiz-adv-x="1237" 
d="M146 944h944v-944h-944v944zM222 868v-792h792v792h-792z" />
    <glyph glyph-name="H18543" unicode="&#x25aa;" horiz-adv-x="726" 
d="M594 909v-464h-463v463z" />
    <glyph glyph-name="H18551" unicode="&#x25ab;" horiz-adv-x="726" 
d="M594 909v-464h-463v463zM518 833l-311 -1v-311h311v312z" />
    <glyph glyph-name="H18533" unicode="&#x25cf;" horiz-adv-x="1237" 
d="M619 1018q181 0 310.5 -129t129.5 -311t-129 -311.5t-311 -129.5t-311.5 129.5t-129.5 311.5q0 189 131.5 314.5t309.5 125.5z" />
    <glyph glyph-name="openbullet" unicode="&#x25e6;" horiz-adv-x="726" 
d="M363 928q101 0 176 -72t75 -179q0 -104 -73.5 -177.5t-177.5 -73.5t-177.5 73.5t-73.5 177.5t74 177.5t177 73.5zM363 852q-71 0 -123 -50t-52 -125q0 -73 51.5 -124t123.5 -51t123.5 51t51.5 124q0 74 -52 124.5t-123 50.5z" />
    <glyph glyph-name="commaaccent" unicode="&#xf004;" horiz-adv-x="682" 
d="M181 -110l186 -110l-248 -324l-116 70z" />
    <glyph glyph-name="Amacron" unicode="&#x100;" horiz-adv-x="1515" 
d="M770 1471h233l366 -1471h-268l-78 313h-581l-169 -313h-297zM956 573l-118 483l-259 -483h377zM598 1616l31 221h569l-31 -221h-569z" />
    <glyph glyph-name="amacron" unicode="&#x101;" horiz-adv-x="1352" 
d="M984 1088h267l-142 -1088h-264l15 117q-87 -81 -162.5 -113t-169.5 -32q-216 0 -343.5 159t-127.5 370q0 161 81 306.5t217.5 227t285.5 81.5q100 0 184.5 -46t139.5 -134zM590 210q98 0 171 44t122.5 138t49.5 192q0 129 -74.5 207.5t-196.5 78.5q-142 0 -241 -105
t-99 -271q0 -128 75 -206t193 -78zM444 1287l31 221h569l-31 -221h-569z" />
    <glyph glyph-name="Ccircumflex" unicode="&#x108;" horiz-adv-x="1597" 
d="M1524 1281l-201 -186q-65 75 -159 115.5t-204 40.5q-154 0 -295 -79t-219.5 -209t-78.5 -277q0 -200 138 -332.5t354 -132.5q231 0 400 134l163 -215q-251 -177 -581 -177q-232 0 -394.5 88t-261 258.5t-98.5 369.5q0 213 116.5 408.5t315.5 308t434 112.5
q330 0 571 -227zM845 1865h218l259 -282h-298l-90 130l-130 -130h-300z" />
    <glyph glyph-name="ccircumflex" unicode="&#x109;" horiz-adv-x="1311" 
d="M1187 863l-226 -123q-96 122 -258 122q-109 0 -193 -46.5t-134 -134.5t-50 -186q0 -126 79 -202t217 -76q191 0 293 129l210 -148q-89 -106 -221.5 -166t-295.5 -60q-254 0 -400.5 140t-146.5 370q0 263 181 448.5t466 185.5q321 0 479 -253zM631 1536h218l259 -282h-298
l-90 130l-130 -130h-300z" />
    <glyph glyph-name="Cdot" unicode="&#x10a;" horiz-adv-x="1597" 
d="M1524 1281l-201 -186q-65 75 -159 115.5t-204 40.5q-154 0 -295 -79t-219.5 -209t-78.5 -277q0 -200 138 -332.5t354 -132.5q231 0 400 134l163 -215q-251 -177 -581 -177q-232 0 -394.5 88t-261 258.5t-98.5 369.5q0 213 116.5 408.5t315.5 308t434 112.5
q330 0 571 -227zM984 1865q52 0 87.5 -35t35.5 -84q0 -69 -48 -118t-117 -49q-56 0 -90 34.5t-34 90.5q0 64 49.5 112.5t116.5 48.5z" />
    <glyph glyph-name="cdot" unicode="&#x10b;" horiz-adv-x="1311" 
d="M1187 863l-226 -123q-96 122 -258 122q-109 0 -193 -46.5t-134 -134.5t-50 -186q0 -126 79 -202t217 -76q191 0 293 129l210 -148q-89 -106 -221.5 -166t-295.5 -60q-254 0 -400.5 140t-146.5 370q0 263 181 448.5t466 185.5q321 0 479 -253zM730 1536q52 0 87.5 -35
t35.5 -84q0 -69 -48 -118t-117 -49q-56 0 -90 34.5t-34 90.5q0 64 49.5 112.5t116.5 48.5z" />
    <glyph glyph-name="Emacron" unicode="&#x112;" horiz-adv-x="1065" 
d="M245 1471h799l-34 -261h-520l-42 -304h522l-33 -259h-522l-52 -390h525l-35 -257h-801zM361 1616l31 221h569l-31 -221h-569z" />
    <glyph glyph-name="emacron" unicode="&#x113;" horiz-adv-x="1311" 
d="M861 319l235 -122q-79 -104 -209.5 -164.5t-289.5 -60.5q-249 0 -392.5 140t-143.5 372q0 265 179.5 448.5t433.5 183.5q153 0 272.5 -67t188.5 -195t69 -278q0 -47 -10 -110h-868q4 -113 74.5 -180t194.5 -67q150 0 266 100zM929 662q-30 100 -100 151.5t-169 51.5
q-98 0 -177 -53t-120 -150h566zM423 1287l31 221h569l-31 -221h-569z" />
    <glyph glyph-name="Ebreve" unicode="&#x114;" horiz-adv-x="1065" 
d="M245 1471h799l-34 -261h-520l-42 -304h522l-33 -259h-522l-52 -390h525l-35 -257h-801zM271 1896h221q17 -40 51 -57q50 -25 124 -25q68 0 117.5 20.5t79.5 61.5h221q-39 -129 -153.5 -204.5t-291.5 -75.5q-185 0 -277.5 77.5t-91.5 202.5z" />
    <glyph glyph-name="ebreve" unicode="&#x115;" horiz-adv-x="1311" 
d="M861 319l235 -122q-79 -104 -209.5 -164.5t-289.5 -60.5q-249 0 -392.5 140t-143.5 372q0 265 179.5 448.5t433.5 183.5q153 0 272.5 -67t188.5 -195t69 -278q0 -47 -10 -110h-868q4 -113 74.5 -180t194.5 -67q150 0 266 100zM929 662q-30 100 -100 151.5t-169 51.5
q-98 0 -177 -53t-120 -150h566zM338 1567h221q17 -40 51 -57q50 -25 124 -25q68 0 117.5 20.5t79.5 61.5h221q-39 -129 -153.5 -204.5t-291.5 -75.5q-185 0 -277.5 77.5t-91.5 202.5z" />
    <glyph glyph-name="Edot" unicode="&#x116;" horiz-adv-x="1065" 
d="M245 1471h799l-34 -261h-520l-42 -304h522l-33 -259h-522l-52 -390h525l-35 -257h-801zM689 1865q52 0 87.5 -35t35.5 -84q0 -69 -48 -118t-117 -49q-56 0 -90 34.5t-34 90.5q0 64 49.5 112.5t116.5 48.5z" />
    <glyph glyph-name="edot" unicode="&#x117;" horiz-adv-x="1311" 
d="M861 319l235 -122q-79 -104 -209.5 -164.5t-289.5 -60.5q-249 0 -392.5 140t-143.5 372q0 265 179.5 448.5t433.5 183.5q153 0 272.5 -67t188.5 -195t69 -278q0 -47 -10 -110h-868q4 -113 74.5 -180t194.5 -67q150 0 266 100zM929 662q-30 100 -100 151.5t-169 51.5
q-98 0 -177 -53t-120 -150h566zM738 1536q52 0 87.5 -35t35.5 -84q0 -69 -48 -118t-117 -49q-56 0 -90 34.5t-34 90.5q0 64 49.5 112.5t116.5 48.5z" />
    <glyph glyph-name="Gcircumflex" unicode="&#x11c;" horiz-adv-x="1720" 
d="M1541 1197l-230 -149q-100 114 -193 158.5t-211 44.5q-255 0 -415 -205q-127 -163 -127 -362q0 -196 130.5 -329t321.5 -133q142 0 258.5 68.5t190.5 205.5h-459l34 261h744q-16 -365 -228.5 -579.5t-541.5 -214.5q-358 0 -563 248q-165 199 -165 474q0 335 241.5 579
t575.5 244q124 0 242 -36t213 -101t182 -174zM863 1865h218l259 -282h-298l-90 130l-130 -130h-300z" />
    <glyph glyph-name="gcircumflex" unicode="&#x11d;" horiz-adv-x="1352" 
d="M984 1088h267l-119 -871q-35 -258 -72 -342q-58 -130 -195 -215.5t-344 -85.5q-172 0 -299.5 66.5t-190.5 171.5l229 120q103 -109 268 -109q96 0 166 35t109 94.5t55 176.5q-145 -129 -329 -129q-128 0 -236.5 64.5t-170.5 181.5t-62 260q0 161 81 302.5t220.5 224.5
t291.5 83q92 0 167 -36t147 -121zM667 864q-145 0 -244.5 -102t-99.5 -251q0 -121 74 -194t198 -73q93 0 172 45t125 129t46 181q0 114 -76 189.5t-195 75.5zM648 1536h218l259 -282h-298l-90 130l-130 -130h-300z" />
    <glyph glyph-name="Gdot" unicode="&#x120;" horiz-adv-x="1720" 
d="M1541 1197l-230 -149q-100 114 -193 158.5t-211 44.5q-255 0 -415 -205q-127 -163 -127 -362q0 -196 130.5 -329t321.5 -133q142 0 258.5 68.5t190.5 205.5h-459l34 261h744q-16 -365 -228.5 -579.5t-541.5 -214.5q-358 0 -563 248q-165 199 -165 474q0 335 241.5 579
t575.5 244q124 0 242 -36t213 -101t182 -174zM977 1865q52 0 87.5 -35t35.5 -84q0 -69 -48 -118t-117 -49q-56 0 -90 34.5t-34 90.5q0 64 49.5 112.5t116.5 48.5z" />
    <glyph glyph-name="gdot" unicode="&#x121;" horiz-adv-x="1352" 
d="M984 1088h267l-119 -871q-35 -258 -72 -342q-58 -130 -195 -215.5t-344 -85.5q-172 0 -299.5 66.5t-190.5 171.5l229 120q103 -109 268 -109q96 0 166 35t109 94.5t55 176.5q-145 -129 -329 -129q-128 0 -236.5 64.5t-170.5 181.5t-62 260q0 161 81 302.5t220.5 224.5
t291.5 83q92 0 167 -36t147 -121zM667 864q-145 0 -244.5 -102t-99.5 -251q0 -121 74 -194t198 -73q93 0 172 45t125 129t46 181q0 114 -76 189.5t-195 75.5zM746 1536q52 0 87.5 -35t35.5 -84q0 -69 -48 -118t-117 -49q-56 0 -90 34.5t-34 90.5q0 64 49.5 112.5t116.5 48.5
z" />
    <glyph glyph-name="Gcedilla" unicode="&#x122;" horiz-adv-x="1720" 
d="M1541 1197l-230 -149q-100 114 -193 158.5t-211 44.5q-255 0 -415 -205q-127 -163 -127 -362q0 -196 130.5 -329t321.5 -133q142 0 258.5 68.5t190.5 205.5h-459l34 261h744q-16 -365 -228.5 -579.5t-541.5 -214.5q-358 0 -563 248q-165 199 -165 474q0 335 241.5 579
t575.5 244q124 0 242 -36t213 -101t182 -174zM752 14h169l-18 -44q60 -16 91 -52.5t31 -81.5q0 -86 -77.5 -152t-206.5 -66q-108 0 -216 47l54 129q71 -24 138 -24q53 0 82.5 23t29.5 57q0 24 -16.5 36t-62.5 12l-51 -2z" />
    <glyph glyph-name="gcedilla" unicode="&#x123;" horiz-adv-x="1352" 
d="M984 1088h267l-119 -871q-35 -258 -72 -342q-58 -130 -195 -215.5t-344 -85.5q-172 0 -299.5 66.5t-190.5 171.5l229 120q103 -109 268 -109q96 0 166 35t109 94.5t55 176.5q-145 -129 -329 -129q-128 0 -236.5 64.5t-170.5 181.5t-62 260q0 161 81 302.5t220.5 224.5
t291.5 83q92 0 167 -36t147 -121zM667 864q-145 0 -244.5 -102t-99.5 -251q0 -121 74 -194t198 -73q93 0 172 45t125 129t46 181q0 114 -76 189.5t-195 75.5zM821 1249h-251l17 124q17 133 57.5 222t147.5 213l86 -75q-85 -111 -116 -198h100z" />
    <glyph glyph-name="Hcircumflex" unicode="&#x124;" horiz-adv-x="1393" 
d="M266 1471h277l-74 -555h503l75 555h278l-200 -1471h-276l91 668h-507l-90 -668h-275zM736 1865h218l259 -282h-298l-90 130l-130 -130h-300z" />
    <glyph glyph-name="hcircumflex" unicode="&#x125;" 
d="M250 1508h265l-72 -530q153 138 318 138q141 0 231 -89.5t90 -225.5q0 -64 -17 -191l-81 -610h-265l79 595q12 92 12 138q0 66 -37.5 101.5t-106.5 35.5q-67 0 -134 -46.5t-103 -129t-66 -309.5l-51 -385h-266zM671 1865h218l259 -282h-298l-90 130l-130 -130h-300z" />
    <glyph glyph-name="Hbar" unicode="&#x126;" horiz-adv-x="1393" 
d="M519 1292h504l24 179h278l-24 -179h132l-22 -163h-133l-153 -1129h-276l91 668h-507l-90 -668h-275l152 1129h-132l22 163h132l24 179h277zM497 1129l-28 -213h503l29 213h-504z" />
    <glyph glyph-name="hbar" unicode="&#x127;" 
d="M498 1379h319l-18 -158h-323l-33 -243q147 138 318 138q145 0 233 -91.5t88 -223.5q0 -64 -17 -191l-81 -610h-265l79 595q12 91 12 137q0 73 -42.5 105.5t-101.5 32.5q-72 0 -141 -52t-101 -136t-61 -297l-51 -385h-266l165 1221h-138l18 158h141l18 129h265z" />
    <glyph glyph-name="Itilde" unicode="&#x128;" horiz-adv-x="573" 
d="M256 1471h270l-203 -1471h-265zM70 1618l-86 165q89 57 150.5 77t123.5 20q47 0 122 -21q119 -33 167 -33q85 0 179 51l83 -155q-102 -72 -140 -86q-61 -22 -122 -22t-148 27q-71 22 -89 26q-24 4 -54 4q-98 0 -186 -53z" />
    <glyph glyph-name="itilde" unicode="&#x129;" horiz-adv-x="491" 
d="M158 1088h264l-146 -1088h-266zM-4 1289l-86 165q89 57 150.5 77t123.5 20q47 0 122 -21q119 -33 167 -33q85 0 179 51l83 -155q-102 -72 -140 -86q-61 -22 -122 -22t-148 27q-71 22 -89 26q-24 4 -54 4q-98 0 -186 -53z" />
    <glyph glyph-name="Imacron" unicode="&#x12a;" horiz-adv-x="573" 
d="M256 1471h270l-203 -1471h-265zM117 1616l31 221h569l-31 -221h-569z" />
    <glyph glyph-name="imacron" unicode="&#x12b;" horiz-adv-x="491" 
d="M158 1088h264l-146 -1088h-266zM21 1287l31 221h569l-31 -221h-569z" />
    <glyph glyph-name="Ibreve" unicode="&#x12c;" horiz-adv-x="573" 
d="M256 1471h270l-203 -1471h-265zM16 1896h221q17 -40 51 -57q50 -25 124 -25q68 0 117.5 20.5t79.5 61.5h221q-39 -129 -153.5 -204.5t-291.5 -75.5q-185 0 -277.5 77.5t-91.5 202.5z" />
    <glyph glyph-name="ibreve" unicode="&#x12d;" horiz-adv-x="491" 
d="M158 1088h264l-146 -1088h-266zM-43 1567h221q17 -40 51 -57q50 -25 124 -25q68 0 117.5 20.5t79.5 61.5h221q-39 -129 -153.5 -204.5t-291.5 -75.5q-185 0 -277.5 77.5t-91.5 202.5z" />
    <glyph glyph-name="Iogonek" unicode="&#x12e;" horiz-adv-x="573" 
d="M256 1471h270l-203 -1471h-265zM179 0h144q-165 -90 -165 -179q0 -35 25.5 -57t66.5 -22q34 0 91 27l-22 -159q-71 -15 -131 -15q-110 0 -164.5 46t-54.5 118q0 67 53 132t157 109z" />
    <glyph glyph-name="iogonek" unicode="&#x12f;" horiz-adv-x="491" 
d="M324 1533q68 0 116.5 -48.5t48.5 -116.5t-48.5 -116.5t-116.5 -48.5t-116.5 48.5t-48.5 116.5t48.5 116.5t116.5 48.5zM158 1088h264l-146 -1088h-266zM132 0h144q-165 -90 -165 -179q0 -35 25.5 -57t66.5 -22q34 0 91 27l-22 -159q-71 -15 -131 -15q-110 0 -164.5 46
t-54.5 118q0 67 53 132t157 109z" />
    <glyph glyph-name="Jcircumflex" unicode="&#x134;" horiz-adv-x="983" 
d="M643 1471h276l-138 -1038q-28 -206 -70 -291.5t-122 -132t-187 -46.5q-133 0 -253.5 78t-195.5 222l219 133q58 -90 115 -130.5t101 -40.5q47 0 73 36t39 157zM588 1865h218l259 -282h-298l-90 130l-130 -130h-300z" />
    <glyph glyph-name="jcircumflex" unicode="&#x135;" horiz-adv-x="533" 
d="M255 1536h219l259 -282h-298l-90 130l-130 -130h-300zM178 1088h266l-130 -963q-35 -255 -69.5 -350.5t-107 -148t-168.5 -52.5q-73 0 -164 39l32 240q43 -29 83 -29q63 0 86 78t38 188z" />
    <glyph glyph-name="Kcedilla" unicode="&#x136;" horiz-adv-x="1270" 
d="M270 1471h277l-68 -500l474 500h342l-641 -673l507 -798h-309l-415 654l-89 -654h-274zM427 -14q62 4 95 4q117 0 165.5 -46.5t48.5 -108.5q0 -80 -75.5 -148.5t-209.5 -68.5q-83 0 -189 36l53 131q68 -16 108 -16q115 0 115 80q0 48 -73 48q-25 0 -76 -5zM730 -30z" />
    <glyph glyph-name="kcedilla" unicode="&#x137;" horiz-adv-x="1188" 
d="M246 1508h263l-107 -799l430 379h366l-550 -485l481 -603h-320l-430 536l-71 -536h-262zM385 -14q62 4 95 4q117 0 165.5 -46.5t48.5 -108.5q0 -80 -75.5 -148.5t-209.5 -68.5q-83 0 -189 36l53 131q68 -16 108 -16q115 0 115 80q0 48 -73 48q-25 0 -76 -5zM688 -30z" />
    <glyph glyph-name="kgreenlandic" unicode="&#x138;" horiz-adv-x="1188" 
d="M190 1088h263l-51 -379l430 379h366l-550 -485l481 -603h-320l-430 536l-71 -536h-262z" />
    <glyph glyph-name="Lcedilla" unicode="&#x13b;" horiz-adv-x="901" 
d="M271 1471h277l-166 -1218h457l-32 -253h-735zM267 -14q62 4 95 4q117 0 165.5 -46.5t48.5 -108.5q0 -80 -75.5 -148.5t-209.5 -68.5q-83 0 -189 36l53 131q68 -16 108 -16q115 0 115 80q0 48 -73 48q-25 0 -76 -5zM570 -30z" />
    <glyph glyph-name="lcedilla" unicode="&#x13c;" horiz-adv-x="491" 
d="M214 1508h266l-200 -1508h-266zM17 -14q62 4 95 4q117 0 165.5 -46.5t48.5 -108.5q0 -80 -75.5 -148.5t-209.5 -68.5q-83 0 -189 36l53 131q68 -16 108 -16q115 0 115 80q0 48 -73 48q-25 0 -76 -5zM320 -30z" />
    <glyph glyph-name="Ncedilla" unicode="&#x145;" horiz-adv-x="1515" 
d="M266 1471h242l533 -1000l135 1000h269l-198 -1471h-236l-540 1011l-135 -1011h-265zM529 -14q62 4 95 4q117 0 165.5 -46.5t48.5 -108.5q0 -80 -75.5 -148.5t-209.5 -68.5q-83 0 -189 36l53 131q68 -16 108 -16q115 0 115 80q0 48 -73 48q-25 0 -76 -5zM832 -30z" />
    <glyph glyph-name="ncedilla" unicode="&#x146;" 
d="M193 1088h266l-16 -110q153 138 318 138q141 0 231 -89.5t90 -225.5q0 -64 -17 -191l-81 -610h-265l79 595q12 92 12 138q0 66 -37.5 101.5t-106.5 35.5q-67 0 -134 -46.5t-103 -129t-66 -309.5l-51 -385h-266zM406 -14q62 4 95 4q117 0 165.5 -46.5t48.5 -108.5
q0 -80 -75.5 -148.5t-209.5 -68.5q-83 0 -189 36l53 131q68 -16 108 -16q115 0 115 80q0 48 -73 48q-25 0 -76 -5zM709 -30z" />
    <glyph glyph-name="Eng" unicode="&#x14a;" horiz-adv-x="1598" 
d="M520 1302q202 206 450 206q221 0 384.5 -164.5t163.5 -472.5q0 -361 -171.5 -634.5t-483.5 -273.5q-126 0 -209.5 49.5t-154.5 175.5l210 154q82 -121 181 -121q144 0 247 183t103 422q0 207 -93.5 314t-240.5 107q-211 0 -430 -273l-133 -974h-275l198 1471h277z" />
    <glyph glyph-name="eng" unicode="&#x14b;" 
d="M490 -387l32 240q43 -29 83 -29q57 0 81 61.5t44 204.5l68 505q12 89 12 136q0 75 -42.5 107t-101.5 32q-74 0 -143.5 -53.5t-100.5 -139.5t-59 -292l-51 -385h-266l147 1088h266l-16 -110q147 138 318 138q143 0 232 -91.5t89 -223.5q0 -64 -17 -191l-80 -597
q-35 -267 -122.5 -353t-208.5 -86q-73 0 -164 39z" />
    <glyph glyph-name="Omacron" unicode="&#x14c;" horiz-adv-x="1720" 
d="M945 1508q303 0 500 -195t197 -495q0 -230 -116.5 -433.5t-310 -312.5t-444.5 -109q-314 0 -501.5 186t-187.5 490q0 345 224 593q250 276 639 276zM935 1247q-158 0 -288.5 -76.5t-210.5 -220t-80 -296.5q0 -181 111 -307t319 -126q241 0 409.5 170t168.5 413
q0 201 -118.5 322t-310.5 121zM687 1616l31 221h569l-31 -221h-569z" />
    <glyph glyph-name="omacron" unicode="&#x14d;" horiz-adv-x="1311" 
d="M684 1116q145 0 263.5 -67t184.5 -190t66 -276q0 -254 -181 -432.5t-448 -178.5q-232 0 -370 140.5t-138 367.5q0 274 187 455t436 181zM665 863q-164 0 -251.5 -117.5t-87.5 -254.5q0 -122 71.5 -196.5t190.5 -74.5q169 0 257.5 113.5t88.5 259.5q0 120 -75 195t-194 75
zM420 1287l31 221h569l-31 -221h-569z" />
    <glyph glyph-name="Obreve" unicode="&#x14e;" horiz-adv-x="1720" 
d="M945 1508q303 0 500 -195t197 -495q0 -230 -116.5 -433.5t-310 -312.5t-444.5 -109q-314 0 -501.5 186t-187.5 490q0 345 224 593q250 276 639 276zM935 1247q-158 0 -288.5 -76.5t-210.5 -220t-80 -296.5q0 -181 111 -307t319 -126q241 0 409.5 170t168.5 413
q0 201 -118.5 322t-310.5 121zM585 1896h221q17 -40 51 -57q50 -25 124 -25q68 0 117.5 20.5t79.5 61.5h221q-39 -129 -153.5 -204.5t-291.5 -75.5q-185 0 -277.5 77.5t-91.5 202.5z" />
    <glyph glyph-name="obreve" unicode="&#x14f;" horiz-adv-x="1311" 
d="M684 1116q145 0 263.5 -67t184.5 -190t66 -276q0 -254 -181 -432.5t-448 -178.5q-232 0 -370 140.5t-138 367.5q0 274 187 455t436 181zM665 863q-164 0 -251.5 -117.5t-87.5 -254.5q0 -122 71.5 -196.5t190.5 -74.5q169 0 257.5 113.5t88.5 259.5q0 120 -75 195t-194 75
zM336 1567h221q17 -40 51 -57q50 -25 124 -25q68 0 117.5 20.5t79.5 61.5h221q-39 -129 -153.5 -204.5t-291.5 -75.5q-185 0 -277.5 77.5t-91.5 202.5z" />
    <glyph glyph-name="Rcedilla" unicode="&#x156;" horiz-adv-x="1188" 
d="M281 1471h257q238 0 335 -41q121 -51 182.5 -141.5t61.5 -214.5q0 -153 -91 -262.5t-275 -152.5l321 -659h-286l-314 642h-26l-85 -642h-276zM478 883q227 1 295.5 46.5t68.5 136.5q0 52 -27.5 87t-79.5 49t-211 14zM415 -14q62 4 95 4q117 0 165.5 -46.5t48.5 -108.5
q0 -80 -75.5 -148.5t-209.5 -68.5q-83 0 -189 36l53 131q68 -16 108 -16q115 0 115 80q0 48 -73 48q-25 0 -76 -5zM718 -30z" />
    <glyph glyph-name="rcedilla" unicode="&#x157;" horiz-adv-x="655" 
d="M126 1088h238l-19 -148q107 176 257 176q36 0 75 -19l-96 -241q-30 9 -44 9q-77 0 -137.5 -90.5t-95.5 -365.5l-52 -409h-268zM87 -14q62 4 95 4q117 0 165.5 -46.5t48.5 -108.5q0 -80 -75.5 -148.5t-209.5 -68.5q-83 0 -189 36l53 131q68 -16 108 -16q115 0 115 80
q0 48 -73 48q-25 0 -76 -5zM390 -30z" />
    <glyph glyph-name="Scircumflex" unicode="&#x15c;" horiz-adv-x="1065" 
d="M1017 1266l-201 -178q-124 160 -231 160q-53 0 -88 -31.5t-35 -75.5q0 -41 32 -91t194 -221q86 -91 113 -129q65 -88 93.5 -164.5t28.5 -155.5q0 -177 -126 -297t-323 -120q-300 0 -489 285l212 171q128 -195 277 -195q71 0 119.5 46t48.5 111q0 51 -29.5 104t-168.5 200
q-147 155 -193 234q-62 107 -62 210q0 136 89 244q112 135 302 135q261 0 437 -242zM541 1865h218l259 -282h-298l-90 130l-130 -130h-300z" />
    <glyph glyph-name="scircumflex" unicode="&#x15d;" horiz-adv-x="901" 
d="M790 936l-127 -204q-49 73 -103 107.5t-101 34.5q-36 0 -61 -20t-25 -45q0 -24 20 -48q19 -24 115 -93q153 -110 201.5 -188.5t48.5 -170.5q0 -121 -99.5 -229t-288.5 -108q-109 0 -198.5 44t-199.5 161l165 192q112 -148 245 -148q53 0 84.5 25.5t31.5 60.5
q0 28 -24 57.5t-131 105.5q-124 88 -171 151q-66 88 -66 186q0 137 103.5 223t244.5 86q99 0 188 -47t148 -133zM388 1536h218l259 -282h-298l-90 130l-130 -130h-300z" />
    <glyph glyph-name="Tbar" unicode="&#x166;" horiz-adv-x="860" 
d="M577 792h241l-21 -163h-241l-82 -629h-274l82 629h-242l22 163h241l55 417h-313l34 262h898l-32 -262h-313z" />
    <glyph glyph-name="tbar" unicode="&#x167;" horiz-adv-x="614" 
d="M394 610h192l-22 -158h-191l-62 -452h-267l62 452h-155l22 158h155l34 248h-131l31 230h131l56 404h265l-55 -404h169l-32 -230h-168z" />
    <glyph glyph-name="Utilde" unicode="&#x168;" horiz-adv-x="1311" 
d="M260 1471h275l-122 -908q-16 -119 -16 -168q0 -83 51.5 -129.5t149.5 -46.5q79 0 138 35q44 26 70.5 86.5t51.5 240.5l123 890h278l-120 -878q-37 -271 -97 -389t-173.5 -179.5t-276.5 -61.5q-220 0 -343 117t-123 320q0 88 24 260zM459 1618l-86 165q89 57 150.5 77
t123.5 20q47 0 122 -21q119 -33 167 -33q85 0 179 51l83 -155q-102 -72 -140 -86q-61 -22 -122 -22t-148 27q-71 22 -89 26q-24 4 -54 4q-98 0 -186 -53z" />
    <glyph glyph-name="utilde" unicode="&#x169;" 
d="M195 1088h264l-73 -556q-12 -92 -12 -138q0 -72 50 -121t130 -49q103 0 158.5 63t81.5 256l75 545h264l-79 -585q-27 -198 -90.5 -306.5t-168.5 -166.5t-247 -58q-200 0 -318 115.5t-118 298.5q0 112 25 288zM369 1289l-86 165q89 57 150.5 77t123.5 20q47 0 122 -21
q119 -33 167 -33q85 0 179 51l83 -155q-102 -72 -140 -86q-61 -22 -122 -22t-148 27q-71 22 -89 26q-24 4 -54 4q-98 0 -186 -53z" />
    <glyph glyph-name="Umacron" unicode="&#x16a;" horiz-adv-x="1311" 
d="M260 1471h275l-122 -908q-16 -119 -16 -168q0 -83 51.5 -129.5t149.5 -46.5q79 0 138 35q44 26 70.5 86.5t51.5 240.5l123 890h278l-120 -878q-37 -271 -97 -389t-173.5 -179.5t-276.5 -61.5q-220 0 -343 117t-123 320q0 88 24 260zM493 1616l31 221h569l-31 -221h-569z
" />
    <glyph glyph-name="umacron" unicode="&#x16b;" 
d="M195 1088h264l-73 -556q-12 -92 -12 -138q0 -72 50 -121t130 -49q103 0 158.5 63t81.5 256l75 545h264l-79 -585q-27 -198 -90.5 -306.5t-168.5 -166.5t-247 -58q-200 0 -318 115.5t-118 298.5q0 112 25 288zM400 1287l31 221h569l-31 -221h-569z" />
    <glyph glyph-name="Ubreve" unicode="&#x16c;" horiz-adv-x="1311" 
d="M260 1471h275l-122 -908q-16 -119 -16 -168q0 -83 51.5 -129.5t149.5 -46.5q79 0 138 35q44 26 70.5 86.5t51.5 240.5l123 890h278l-120 -878q-37 -271 -97 -389t-173.5 -179.5t-276.5 -61.5q-220 0 -343 117t-123 320q0 88 24 260zM415 1896h221q17 -40 51 -57
q50 -25 124 -25q68 0 117.5 20.5t79.5 61.5h221q-39 -129 -153.5 -204.5t-291.5 -75.5q-185 0 -277.5 77.5t-91.5 202.5z" />
    <glyph glyph-name="ubreve" unicode="&#x16d;" 
d="M195 1088h264l-73 -556q-12 -92 -12 -138q0 -72 50 -121t130 -49q103 0 158.5 63t81.5 256l75 545h264l-79 -585q-27 -198 -90.5 -306.5t-168.5 -166.5t-247 -58q-200 0 -318 115.5t-118 298.5q0 112 25 288zM316 1567h221q17 -40 51 -57q50 -25 124 -25q68 0 117.5 20.5
t79.5 61.5h221q-39 -129 -153.5 -204.5t-291.5 -75.5q-185 0 -277.5 77.5t-91.5 202.5z" />
    <glyph glyph-name="Uogonek" unicode="&#x172;" horiz-adv-x="1311" 
d="M260 1471h275l-122 -908q-16 -119 -16 -168q0 -83 51.5 -129.5t149.5 -46.5q79 0 138 35q44 26 70.5 86.5t51.5 240.5l123 890h278l-120 -878q-37 -271 -97 -389t-173.5 -179.5t-276.5 -61.5q-220 0 -343 117t-123 320q0 88 24 260zM585 0h144q-165 -90 -165 -179
q0 -35 25.5 -57t66.5 -22q34 0 91 27l-22 -159q-71 -15 -131 -15q-110 0 -164.5 46t-54.5 118q0 67 53 132t157 109z" />
    <glyph glyph-name="uogonek" unicode="&#x173;" 
d="M195 1088h264l-73 -556q-12 -92 -12 -138q0 -72 50 -121t130 -49q103 0 158.5 63t81.5 256l75 545h264l-79 -585q-27 -198 -90.5 -306.5t-168.5 -166.5t-247 -58q-200 0 -318 115.5t-118 298.5q0 112 25 288zM561 0h144q-165 -90 -165 -179q0 -35 25.5 -57t66.5 -22
q34 0 91 27l-22 -159q-71 -15 -131 -15q-110 0 -164.5 46t-54.5 118q0 67 53 132t157 109z" />
    <glyph glyph-name="Wcircumflex" unicode="&#x174;" horiz-adv-x="1843" 
d="M132 1471h252l84 -953l451 953h208l175 -928l327 928h267l-520 -1471h-226l-185 974l-461 -974h-241zM966 1865h218l259 -282h-298l-90 130l-130 -130h-300z" />
    <glyph glyph-name="wcircumflex" unicode="&#x175;" horiz-adv-x="1638" 
d="M52 1088h257l150 -583l317 583h105l152 -583l315 583h284l-591 -1088h-129l-148 575l-310 -575h-127zM775 1536h218l259 -282h-298l-90 130l-130 -130h-300z" />
    <glyph glyph-name="Ycircumflex" unicode="&#x176;" horiz-adv-x="1270" 
d="M66 1471h279l230 -589l418 589h317l-628 -883l-79 -588h-276l81 588zM603 1865h218l259 -282h-298l-90 130l-130 -130h-300z" />
    <glyph glyph-name="ycircumflex" unicode="&#x177;" horiz-adv-x="1188" 
d="M45 1088h262l212 -646l372 646h288l-855 -1486h-282l309 546zM557 1536h218l259 -282h-298l-90 130l-130 -130h-300z" />
    <glyph glyph-name="longs" unicode="&#x17f;" horiz-adv-x="491" 
d="M671 1471l-30 -218q-51 49 -111 49q-49 0 -66.5 -41t-41.5 -210l-143 -1051h-265l145 1076q27 199 53 279.5t89.5 130.5t160.5 50q120 0 209 -65z" />
    <glyph glyph-name="Aringacute" unicode="&#x1fa;" horiz-adv-x="1515" 
d="M770 1471h233l366 -1471h-268l-78 313h-581l-169 -313h-297zM956 573l-118 483l-259 -483h377zM948 1859q81 0 133.5 -53t52.5 -140q0 -99 -77 -176t-176 -77q-82 0 -135.5 55t-53.5 138q0 104 75.5 178.5t180.5 74.5zM929 1731q-40 0 -69.5 -30t-29.5 -71q0 -34 20 -55
t51 -21q37 0 66 30t29 70q0 34 -19.5 55.5t-47.5 21.5zM992 2297h323l-421 -391h-196z" />
    <glyph glyph-name="aringacute" unicode="&#x1fb;" horiz-adv-x="1352" 
d="M984 1088h267l-142 -1088h-264l15 117q-87 -81 -162.5 -113t-169.5 -32q-216 0 -343.5 159t-127.5 370q0 161 81 306.5t217.5 227t285.5 81.5q100 0 184.5 -46t139.5 -134zM590 210q98 0 171 44t122.5 138t49.5 192q0 129 -74.5 207.5t-196.5 78.5q-142 0 -241 -105
t-99 -271q0 -128 75 -206t193 -78zM779 1683q81 0 133.5 -53t52.5 -140q0 -99 -77 -176t-176 -77q-82 0 -135.5 55t-53.5 138q0 104 75.5 178.5t180.5 74.5zM760 1555q-40 0 -69.5 -30t-29.5 -71q0 -34 20 -55t51 -21q37 0 66 30t29 70q0 34 -19.5 55.5t-47.5 21.5z
M868 2165h323l-421 -391h-196z" />
    <glyph glyph-name="AEacute" unicode="&#x1fc;" horiz-adv-x="1843" 
d="M761 1471h1015l-35 -261h-523l-42 -306h527l-35 -258h-524l-54 -390h527l-34 -256h-795l42 314h-399l-171 -314h-296zM865 572l94 726l-391 -726h297zM1265 2006h323l-421 -391h-196z" />
    <glyph glyph-name="aeacute" unicode="&#x1fd;" horiz-adv-x="2212" 
d="M2080 463h-886q43 -247 284 -247q156 0 269 100l236 -121q-72 -97 -206 -160t-291 -63q-107 0 -190.5 27.5t-175.5 94.5l-12 -94h-244l15 114q-130 -142 -332 -142q-137 0 -237 62t-167.5 191t-67.5 275q0 160 81.5 305.5t219.5 228t285 82.5q97 0 182.5 -47.5
t140.5 -134.5l22 182h243l-16 -121q171 121 355 121q206 0 354.5 -156.5t148.5 -380.5q0 -48 -11 -116zM680 867q-142 0 -241 -106.5t-99 -268.5q0 -130 74.5 -208t193.5 -78q96 0 173 45.5t123.5 136.5t46.5 191q0 129 -76 208.5t-195 79.5zM1816 659q-29 99 -98 151.5
t-166 52.5q-98 0 -179 -49t-142 -155h585zM1267 1677h323l-421 -391h-196z" />
    <glyph glyph-name="Oslashacute" unicode="&#x1fe;" horiz-adv-x="1720" 
d="M1472 1284q170 -195 170 -465q0 -230 -116 -433.5t-310 -313t-443 -109.5q-225 0 -382 91l-135 -154l-121 100l132 151q-185 190 -185 488q0 239 114 440t310 315t430 114q244 0 414 -117l128 147l121 -104zM453 364l718 822q-105 61 -241 61q-154 0 -284.5 -77
t-210 -220.5t-79.5 -295.5q0 -168 97 -290zM1286 1076l-710 -810q91 -45 213 -45q239 0 407 170.5t168 411.5q0 157 -78 273zM1107 2006h323l-421 -391h-196z" />
    <glyph glyph-name="oslashacute" unicode="&#x1ff;" horiz-adv-x="1352" 
d="M1102 937q117 -150 117 -354q0 -254 -181 -432.5t-447 -178.5q-164 0 -277 65l-153 -176l-116 105l151 173q-115 143 -115 340q0 174 83 319.5t228.5 231.5t306.5 86t284 -75l163 187l119 -104zM379 349l427 490q-55 24 -125 24q-161 0 -248 -118.5t-87 -252.5
q0 -79 33 -143zM922 731l-429 -490q52 -21 116 -21q167 0 256.5 112.5t89.5 258.5q0 81 -33 140zM861 1677h323l-421 -391h-196z" />
    <glyph glyph-name="tonos" unicode="&#x384;" horiz-adv-x="860" 
d="M692 1639l-95 -382h-196l8 382h283z" />
    <glyph glyph-name="dieresistonos" unicode="&#x385;" horiz-adv-x="860" 
d="M686 1639l-95 -382h-196l8 382h283zM342 1406q0 -59 -44.5 -103.5t-104.5 -44.5q-50 0 -81 32.5t-31 78.5q0 59 44.5 103.5t102.5 43.5q51 0 82.5 -32.5t31.5 -77.5zM941 1406q0 -60 -44.5 -104t-104.5 -44q-49 0 -81 32.5t-32 77.5q0 60 45 104t103 44q51 0 82.5 -32.5
t31.5 -77.5z" />
    <glyph glyph-name="Alphatonos" unicode="&#x386;" horiz-adv-x="1515" 
d="M770 1471h233l366 -1471h-268l-78 313h-581l-169 -313h-297zM956 573l-118 483l-259 -483h377zM487 1508l-95 -382h-196l8 382h283z" />
    <glyph glyph-name="anoteleia" unicode="&#x387;" horiz-adv-x="573" 
d="M487 949q0 -70 -49 -118.5t-119 -48.5t-119 48.5t-49 118.5q0 71 48.5 119t119.5 48q70 0 119 -48.5t49 -118.5z" />
    <glyph glyph-name="Epsilontonos" unicode="&#x388;" horiz-adv-x="1228" 
d="M408 1471h799l-34 -261h-520l-42 -304h522l-33 -259h-522l-52 -390h525l-35 -257h-801zM286 1508l-95 -382h-196l8 382h283z" />
    <glyph glyph-name="Etatonos" unicode="&#x389;" horiz-adv-x="1556" 
d="M429 1471h277l-74 -555h503l75 555h278l-200 -1471h-276l91 668h-507l-90 -668h-275zM286 1508l-95 -382h-196l8 382h283z" />
    <glyph glyph-name="Iotatonos" unicode="&#x38a;" horiz-adv-x="736" 
d="M419 1471h270l-203 -1471h-265zM286 1508l-95 -382h-196l8 382h283z" />
    <glyph glyph-name="Omicrontonos" unicode="&#x38c;" horiz-adv-x="1793" 
d="M1018 1508q303 0 500 -195t197 -495q0 -230 -116.5 -433.5t-310 -312.5t-444.5 -109q-314 0 -501.5 186t-187.5 490q0 345 224 593q250 276 639 276zM1008 1247q-158 0 -288.5 -76.5t-210.5 -220t-80 -296.5q0 -181 111 -307t319 -126q241 0 409.5 170t168.5 413
q0 201 -118.5 322t-310.5 121zM286 1508l-95 -382h-196l8 382h283z" />
    <glyph glyph-name="Upsilontonos" unicode="&#x38e;" horiz-adv-x="1507" 
d="M336 1471h279l230 -589l418 589h317l-628 -883l-79 -588h-276l81 588zM286 1508l-95 -382h-196l8 382h283z" />
    <glyph glyph-name="Omegatonos" unicode="&#x38f;" horiz-adv-x="1824" 
d="M1274 257h383l-35 -257h-683l42 313q456 208 456 583q0 160 -112.5 256.5t-307.5 96.5q-229 0 -382 -140.5t-153 -359.5q0 -265 302 -436l-42 -313h-671l35 257h383q-276 194 -276 511q1 324 240.5 531.5t583.5 207.5q304 0 487.5 -167.5t183.5 -426.5q0 -405 -434 -656z
M286 1508l-95 -382h-196l8 382h283z" />
    <glyph glyph-name="iotadieresistonos" unicode="&#x390;" horiz-adv-x="491" 
d="M158 1088h264l-146 -1088h-266zM502 1639l-95 -382h-196l8 382h283zM158 1406q0 -59 -44.5 -103.5t-104.5 -44.5q-50 0 -81 32.5t-31 78.5q0 59 44.5 103.5t102.5 43.5q51 0 82.5 -32.5t31.5 -77.5zM757 1406q0 -60 -44.5 -104t-104.5 -44q-49 0 -81 32.5t-32 77.5
q0 60 45 104t103 44q51 0 82.5 -32.5t31.5 -77.5z" />
    <glyph glyph-name="Alpha" unicode="&#x391;" horiz-adv-x="1515" 
d="M770 1471h233l366 -1471h-268l-78 313h-581l-169 -313h-297zM956 573l-118 483l-259 -483h377z" />
    <glyph glyph-name="Beta" unicode="&#x392;" horiz-adv-x="1188" 
d="M266 1471h230q210 0 312 -45t164.5 -140t62.5 -205q0 -92 -44 -173.5t-127 -136.5q197 -137 197 -364q0 -118 -62.5 -216t-154.5 -144.5t-266 -46.5h-508zM465 887h50q112 0 152 16.5t68 61.5t28 100q0 51 -25 88t-65.5 50t-164.5 13zM383 261l166 -6q125 0 182 49
t57 134q0 62 -35.5 111t-94.5 69t-226 21z" />
    <glyph glyph-name="Gamma" unicode="&#x393;" horiz-adv-x="948" 
d="M265 1471h730l-35 -260h-455l-165 -1211h-275z" />
    <glyph glyph-name="Delta" unicode="&#x394;" horiz-adv-x="1515" 
d="M1338 0h-1360l32 235l725 1236h243l392 -1236zM1077 257l-260 841l-485 -841h745z" />
    <glyph glyph-name="Epsilon" unicode="&#x395;" horiz-adv-x="1065" 
d="M245 1471h799l-34 -261h-520l-42 -304h522l-33 -259h-522l-52 -390h525l-35 -257h-801z" />
    <glyph glyph-name="Zeta" unicode="&#x396;" horiz-adv-x="1024" 
d="M183 1471h831l-584 -1215h463l-34 -256h-841l585 1212h-456z" />
    <glyph glyph-name="Eta" unicode="&#x397;" horiz-adv-x="1393" 
d="M266 1471h277l-74 -555h503l75 555h278l-200 -1471h-276l91 668h-507l-90 -668h-275z" />
    <glyph glyph-name="Theta" unicode="&#x398;" horiz-adv-x="1720" 
d="M1642 818q0 -342 -239 -598.5t-632 -256.5q-314 0 -501.5 185t-187.5 491q0 361 244.5 615t618.5 254q304 0 500.5 -193.5t196.5 -496.5zM356 654q0 -196 117 -314.5t313 -118.5q244 0 411 169.5t167 413.5q0 200 -117.5 321.5t-311.5 121.5q-269 0 -424 -188t-155 -405z
M614 876h525l-36 -269h-525z" />
    <glyph glyph-name="Iota" unicode="&#x399;" horiz-adv-x="573" 
d="M256 1471h270l-203 -1471h-265z" />
    <glyph glyph-name="Kappa" unicode="&#x39a;" horiz-adv-x="1270" 
d="M270 1471h277l-68 -500l474 500h342l-641 -673l507 -798h-309l-415 654l-89 -654h-274z" />
    <glyph glyph-name="Lambda" unicode="&#x39b;" horiz-adv-x="1434" 
d="M1306 0h-270l-263 1062l-569 -1062h-297l787 1471h247z" />
    <glyph glyph-name="Mu" unicode="&#x39c;" horiz-adv-x="1843" 
d="M376 1471h250l249 -1025l508 1025h238l20 -1471h-258l-12 880l-436 -880h-211l-224 924l-235 -924h-264z" />
    <glyph glyph-name="Nu" unicode="&#x39d;" horiz-adv-x="1515" 
d="M266 1471h242l533 -1000l135 1000h269l-198 -1471h-236l-540 1011l-135 -1011h-265z" />
    <glyph glyph-name="Xi" unicode="&#x39e;" horiz-adv-x="1083" 
d="M1033 1211h-863l35 260h863zM960 661h-863l34 260h863zM871 0h-863l35 260h863z" />
    <glyph glyph-name="Omicron" unicode="&#x39f;" horiz-adv-x="1720" 
d="M945 1508q303 0 500 -195t197 -495q0 -230 -116.5 -433.5t-310 -312.5t-444.5 -109q-314 0 -501.5 186t-187.5 490q0 345 224 593q250 276 639 276zM935 1247q-158 0 -288.5 -76.5t-210.5 -220t-80 -296.5q0 -181 111 -307t319 -126q241 0 409.5 170t168.5 413
q0 201 -118.5 322t-310.5 121z" />
    <glyph glyph-name="Pi" unicode="&#x3a0;" horiz-adv-x="1393" 
d="M265 1471h1059l-200 -1471h-275l165 1211h-509l-165 -1211h-275z" />
    <glyph glyph-name="Rho" unicode="&#x3a1;" horiz-adv-x="1147" 
d="M269 1471h259q236 0 333 -41q120 -51 182 -142t62 -213q0 -134 -72.5 -242.5t-194.5 -158t-406 -53.5l-84 -621h-277zM465 881q226 1 295 47t69 137q0 51 -27 86t-80 49t-210 14z" />
    <glyph glyph-name="Sigma" unicode="&#x3a3;" horiz-adv-x="1027" 
d="M-76 0l488 734l-282 737h902l-35 -260h-480l197 -504l-301 -447h467l-35 -260h-921z" />
    <glyph glyph-name="Tau" unicode="&#x3a4;" horiz-adv-x="860" 
d="M79 1471h898l-32 -262h-313l-159 -1209h-274l159 1209h-313z" />
    <glyph glyph-name="Upsilon" unicode="&#x3a5;" horiz-adv-x="1270" 
d="M99 1471h279l230 -589l418 589h317l-628 -883l-79 -588h-276l81 588z" />
    <glyph glyph-name="Phi" unicode="&#x3a6;" horiz-adv-x="1760" 
d="M932 148l-20 -148h-274l20 148q-273 27 -429.5 164.5t-156.5 360.5q1 290 207.5 468.5t540.5 198.5l18 131h274l-18 -131q247 -18 420 -142.5t173 -377.5q0 -300 -203 -477.5t-552 -194.5zM787 1094q-202 -10 -324 -121t-122 -294q0 -249 351 -284zM1061 1094l-95 -699
q448 27 448 412q0 253 -353 287z" />
    <glyph glyph-name="Chi" unicode="&#x3a7;" horiz-adv-x="1393" 
d="M250 1471h284l207 -455l321 455h320l-518 -728l338 -743h-286l-224 499l-354 -499h-322l552 772z" />
    <glyph glyph-name="Psi" unicode="&#x3a8;" horiz-adv-x="1682" 
d="M1650 1471l-72 -529q-71 -525 -652 -573l-50 -369h-275l50 369q-496 69 -496 509q0 54 8 113l65 480h275l-65 -477q-9 -67 -9 -114q1 -120 59 -180t197 -81l116 852h275l-116 -853q168 27 246.5 110t104.5 276l64 467h275z" />
    <glyph glyph-name="Omega" unicode="&#x3a9;" horiz-adv-x="1751" 
d="M1201 257h383l-35 -257h-683l42 313q456 208 456 583q0 160 -112.5 256.5t-307.5 96.5q-229 0 -382 -140.5t-153 -359.5q0 -265 302 -436l-42 -313h-671l35 257h383q-276 194 -276 511q1 324 240.5 531.5t583.5 207.5q304 0 487.5 -167.5t183.5 -426.5q0 -405 -434 -656z
" />
    <glyph glyph-name="Iotadieresis" unicode="&#x3aa;" horiz-adv-x="573" 
d="M256 1471h270l-203 -1471h-265zM212 1865q52 0 87.5 -35t35.5 -84q0 -69 -48 -118t-117 -49q-56 0 -90 34.5t-34 90.5q0 64 49.5 112.5t116.5 48.5zM655 1865q52 0 87.5 -35t35.5 -84q0 -69 -48 -118t-117 -49q-56 0 -90 34.5t-34 90.5q0 64 49.5 112.5t116.5 48.5z" />
    <glyph glyph-name="Upsilondieresis" unicode="&#x3ab;" horiz-adv-x="1270" 
d="M98 1471h279l230 -589l418 589h317l-628 -883l-79 -588h-276l81 588zM580 1865q52 0 87.5 -35t35.5 -84q0 -69 -48 -118t-117 -49q-56 0 -90 34.5t-34 90.5q0 64 49.5 112.5t116.5 48.5zM1023 1865q52 0 87.5 -35t35.5 -84q0 -69 -48 -118t-117 -49q-56 0 -90 34.5
t-34 90.5q0 64 49.5 112.5t116.5 48.5z" />
    <glyph glyph-name="alphatonos" unicode="&#x3ac;" horiz-adv-x="1352" 
d="M984 1088h267l-142 -1088h-264l15 117q-87 -81 -162.5 -113t-169.5 -32q-216 0 -343.5 159t-127.5 370q0 161 81 306.5t217.5 227t285.5 81.5q100 0 184.5 -46t139.5 -134zM590 210q98 0 171 44t122.5 138t49.5 192q0 129 -74.5 207.5t-196.5 78.5q-142 0 -241 -105
t-99 -271q0 -128 75 -206t193 -78zM933 1639l-95 -382h-196l8 382h283z" />
    <glyph glyph-name="epsilontonos" unicode="&#x3ad;" horiz-adv-x="897" 
d="M790 96q-160 -124 -381 -124q-151 0 -268.5 74.5t-117.5 225.5q0 224 241 309q-123 77 -123 206q1 150 119 239.5t291 89.5t299 -112l-133 -188q-92 65 -169 65q-62 0 -106.5 -32.5t-44.5 -86.5q0 -47 42 -76.5t100 -29.5h54l-26 -195h-71q-66 0 -123.5 -34.5
t-57.5 -98.5q0 -50 43.5 -82t102.5 -32q108 0 235 91zM706 1639l-95 -382h-196l8 382h283z" />
    <glyph glyph-name="etatonos" unicode="&#x3ae;" 
d="M935 -398h-270l133 993q12 90 12 138q0 137 -144 137q-70 0 -137 -48t-102 -131t-64 -306l-51 -385h-266l147 1088h266l-16 -110q153 138 318 138q140 0 230.5 -88t90.5 -227q0 -59 -17 -191zM872 1639l-95 -382h-196l8 382h283z" />
    <glyph glyph-name="iotatonos" unicode="&#x3af;" horiz-adv-x="491" 
d="M158 1088h264l-146 -1088h-266zM503 1639l-95 -382h-196l8 382h283z" />
    <glyph glyph-name="upsilondieresistonos" unicode="&#x3b0;" 
d="M152 1089h266l-70 -532q-10 -72 -10 -121q0 -210 210 -210q137 0 220 101t83 250q0 182 -223 325l170 218q317 -189 317 -528q0 -270 -167.5 -445t-433.5 -175q-442 0 -442 441q0 73 12 159zM872 1639l-95 -382h-196l8 382h283zM528 1406q0 -59 -44.5 -103.5
t-104.5 -44.5q-50 0 -81 32.5t-31 78.5q0 59 44.5 103.5t102.5 43.5q51 0 82.5 -32.5t31.5 -77.5zM1127 1406q0 -60 -44.5 -104t-104.5 -44q-49 0 -81 32.5t-32 77.5q0 60 45 104t103 44q51 0 82.5 -32.5t31.5 -77.5z" />
    <glyph glyph-name="alpha" unicode="&#x3b1;" horiz-adv-x="1352" 
d="M984 1088h267l-142 -1088h-264l15 117q-87 -81 -162.5 -113t-169.5 -32q-216 0 -343.5 159t-127.5 370q0 161 81 306.5t217.5 227t285.5 81.5q100 0 184.5 -46t139.5 -134zM590 210q98 0 171 44t122.5 138t49.5 192q0 129 -74.5 207.5t-196.5 78.5q-142 0 -241 -105
t-99 -271q0 -128 75 -206t193 -78z" />
    <glyph glyph-name="beta" unicode="&#x3b2;" horiz-adv-x="1267" 
d="M307 102l-66 -500h-266l198 1490q28 208 165 326t346 118q167 0 272 -93.5t105 -241.5q0 -199 -199 -306q282 -101 282 -378q0 -240 -158 -392.5t-404 -152.5q-166 0 -275 130zM521 716l30 231q240 28 240 213q1 57 -34.5 91.5t-95.5 34.5q-197 0 -232 -265l-67 -505
q-5 -37 -5 -70q0 -224 224 -224q131 0 213 73.5t82 194.5q0 226 -348 226h-7z" />
    <glyph glyph-name="gamma" unicode="&#x3b3;" horiz-adv-x="1147" 
d="M585 156l-74 -554h-266l76 555l-266 931h262l170 -605l349 605h290z" />
    <glyph glyph-name="delta" unicode="&#x3b4;" horiz-adv-x="1228" 
d="M412 898q-108 94 -108 236q0 183 145 292.5t358 109.5q130 0 302 -43l-102 -241q-130 34 -222 34q-216 0 -216 -142q0 -48 46.5 -84t184.5 -93q303 -124 303 -427q0 -252 -167.5 -410t-423.5 -158q-202 0 -335 129.5t-134 315.5q0 337 369 481zM310 437q0 -95 65 -156.5
t165 -61.5q121 0 209 87.5t88 207.5q0 98 -63.5 161.5t-165.5 63.5q-117 0 -207 -92t-91 -210zM608 986z" />
    <glyph glyph-name="epsilon" unicode="&#x3b5;" horiz-adv-x="897" 
d="M790 96q-160 -124 -381 -124q-151 0 -268.5 74.5t-117.5 225.5q0 224 241 309q-123 77 -123 206q1 150 119 239.5t291 89.5t299 -112l-133 -188q-92 65 -169 65q-62 0 -106.5 -32.5t-44.5 -86.5q0 -47 42 -76.5t100 -29.5h54l-26 -195h-71q-66 0 -123.5 -34.5
t-57.5 -98.5q0 -50 43.5 -82t102.5 -32q108 0 235 91z" />
    <glyph glyph-name="zeta" unicode="&#x3b6;" horiz-adv-x="974" 
d="M186 -393l90 241q72 -31 169 -31q149 0 149 99q0 56 -58 75q-138 33 -248.5 73.5t-179 138.5t-68.5 249q0 209 133.5 399.5t466.5 406.5h-409l33 250h785l-30 -227q-406 -261 -556 -445t-150 -353q0 -78 41.5 -127.5t193.5 -91.5q315 -87 315 -303q1 -187 -118.5 -287
t-332.5 -100q-97 0 -226 33z" />
    <glyph glyph-name="eta" unicode="&#x3b7;" 
d="M935 -398h-270l133 993q12 90 12 138q0 137 -144 137q-70 0 -137 -48t-102 -131t-64 -306l-51 -385h-266l147 1088h266l-16 -110q153 138 318 138q140 0 230.5 -88t90.5 -227q0 -59 -17 -191z" />
    <glyph glyph-name="theta" unicode="&#x3b8;" horiz-adv-x="1341" 
d="M559 -28q-252 0 -368 172.5t-116 435.5q0 390 183.5 673t511.5 283q237 0 364.5 -161.5t126.5 -447.5q0 -387 -174.5 -671t-527.5 -284zM367 880h636q1 247 -72.5 328t-193.5 81q-271 0 -370 -409zM968 625h-634q0 -234 69.5 -320t190.5 -86q274 0 374 406z" />
    <glyph glyph-name="iota" unicode="&#x3b9;" horiz-adv-x="491" 
d="M158 1088h264l-146 -1088h-266z" />
    <glyph glyph-name="kappa" unicode="&#x3ba;" horiz-adv-x="1188" 
d="M190 1089h263l-51 -380l430 379h366l-550 -485l481 -603h-320l-430 536l-71 -536h-262z" />
    <glyph glyph-name="lambda" unicode="&#x3bb;" horiz-adv-x="1188" 
d="M1069 0h-277l-214 675l-364 -675h-299l552 1014l-166 494h276z" />
    <glyph glyph-name="mu" unicode="&#x3bc;" 
d="M979 0h-266l16 110q-142 -128 -280 -128q-81 0 -132 65l-60 -445h-267l197 1486h267l-89 -670q-3 -26 -3 -63q0 -137 144 -137q70 0 137 48t102 131t64 306l51 385h266z" />
    <glyph glyph-name="nu" unicode="&#x3bd;" horiz-adv-x="1147" 
d="M55 1088h262l170 -605l349 605h290l-631 -1088h-129z" />
    <glyph glyph-name="xi" unicode="&#x3be;" horiz-adv-x="974" 
d="M186 -392l90 240q82 -31 170 -31q147 0 147 92q0 40 -30.5 57.5t-170.5 53.5q-356 87 -356 392q0 303 304 459q-135 91 -135 258q0 195 140 301t375 106q157 0 314 -46l-105 -238q-122 34 -250 34q-88 0 -150.5 -49.5t-62.5 -128.5q0 -142 270 -142h147l-33 -249h-196
q-187 0 -268.5 -82t-81.5 -191q0 -73 48.5 -110t219.5 -85q291 -81 291 -287q0 -189 -119 -288.5t-337 -99.5q-100 0 -221 34z" />
    <glyph glyph-name="omicron" unicode="&#x3bf;" horiz-adv-x="1311" 
d="M684 1116q145 0 263.5 -67t184.5 -190t66 -276q0 -254 -181 -432.5t-448 -178.5q-232 0 -370 140.5t-138 367.5q0 274 187 455t436 181zM665 863q-164 0 -251.5 -117.5t-87.5 -254.5q0 -122 71.5 -196.5t190.5 -74.5q169 0 257.5 113.5t88.5 259.5q0 120 -75 195t-194 75
z" />
    <glyph glyph-name="pi" unicode="&#x3c0;" horiz-adv-x="1382" 
d="M1331 838h-183l-111 -838h-266l111 838h-374l-111 -838h-266l111 838h-173l33 250h1262z" />
    <glyph glyph-name="rho" unicode="&#x3c1;" horiz-adv-x="1336" 
d="M302 147l-77 -545h-265l124 933q37 276 216 428.5t405 152.5q243 0 378.5 -156.5t135.5 -376.5q0 -261 -178 -436t-437 -175q-188 0 -302 175zM347 491q0 -123 71.5 -197t190.5 -74q152 0 249 103t97 270q0 120 -74.5 195t-194.5 75q-149 0 -244 -107.5t-95 -264.5z" />
    <glyph glyph-name="sigma1" unicode="&#x3c2;" horiz-adv-x="1199" 
d="M1184 868l-244 -125q-111 123 -257 123q-151 0 -253.5 -96t-103.5 -244q0 -93 65 -154.5t234 -112.5q316 -95 316 -303q0 -182 -122 -282t-329 -100q-97 0 -226 33l90 241q70 -31 169 -31q148 0 148 95q0 59 -137 92q-476 114 -476 483q0 289 183.5 459t484.5 170
q142 0 268 -66.5t190 -181.5z" />
    <glyph glyph-name="sigma" unicode="&#x3c3;" horiz-adv-x="1468" 
d="M860 1088h590l-33 -250h-285q66 -110 66 -265q0 -265 -178 -433t-451 -168q-231 0 -369.5 138.5t-138.5 369.5q0 265 180.5 450.5t442.5 185.5q93 0 176 -28zM326 491q0 -123 71.5 -197t190.5 -74q152 0 249 103t97 270q0 120 -74.5 195t-194.5 75q-149 0 -244 -107.5
t-95 -264.5z" />
    <glyph glyph-name="tau" unicode="&#x3c4;" horiz-adv-x="852" 
d="M801 838h-233l-111 -838h-266l111 838h-233l33 250h732z" />
    <glyph glyph-name="upsilon" unicode="&#x3c5;" 
d="M152 1089h266l-70 -532q-10 -72 -10 -121q0 -210 210 -210q137 0 220 101t83 250q0 182 -223 325l170 218q317 -189 317 -528q0 -270 -167.5 -445t-433.5 -175q-442 0 -442 441q0 73 12 159z" />
    <glyph glyph-name="phi" unicode="&#x3c6;" horiz-adv-x="1632" 
d="M839 -23l-50 -375h-266l50 376q-246 24 -382.5 155t-136.5 347q0 410 485 628l41 -265q-262 -136 -262 -359q0 -218 289 -252l116 877q78 7 137 7q303 0 480 -137t177 -375q0 -568 -678 -627zM955 857l-82 -625q377 34 377 358q0 255 -295 267z" />
    <glyph glyph-name="chi" unicode="&#x3c7;" horiz-adv-x="1147" 
d="M1142 1088l-474 -721l323 -765h-282l-210 524l-335 -524h-318l526 799l-290 687h282l177 -445l282 445h319z" />
    <glyph glyph-name="psi" unicode="&#x3c8;" horiz-adv-x="1560" 
d="M812 -22l-50 -376h-266l50 376q-463 54 -463 480q0 56 8 118l68 512h266l-64 -480q-12 -94 -12 -144q0 -107 54.5 -156t177.5 -66l112 846h266l-112 -847q129 17 209.5 92t111.5 315l59 440h266l-75 -561q-34 -256 -176.5 -386.5t-429.5 -162.5z" />
    <glyph glyph-name="omega" unicode="&#x3c9;" horiz-adv-x="1756" 
d="M793 133q-121 -161 -321 -161q-201 0 -314 116t-113 326q0 305 188.5 488t527.5 217l-12 -250q-439 -54 -439 -452q0 -199 184 -199q181 0 217 276l18 131h261l-18 -131q-6 -45 -6 -87q0 -189 150 -189q255 0 255 331q0 272 -338 320l54 250q265 -29 408.5 -172
t143.5 -370q1 -286 -144 -445.5t-413 -159.5q-208 0 -289 161z" />
    <glyph glyph-name="iotadieresis" unicode="&#x3ca;" horiz-adv-x="491" 
d="M158 1088h264l-146 -1088h-266zM99 1536q52 0 87.5 -35t35.5 -84q0 -69 -48 -118t-117 -49q-56 0 -90 34.5t-34 90.5q0 64 49.5 112.5t116.5 48.5zM542 1536q52 0 87.5 -35t35.5 -84q0 -69 -48 -118t-117 -49q-56 0 -90 34.5t-34 90.5q0 64 49.5 112.5t116.5 48.5z" />
    <glyph glyph-name="upsilondieresis" unicode="&#x3cb;" 
d="M152 1089h266l-70 -532q-10 -72 -10 -121q0 -210 210 -210q137 0 220 101t83 250q0 182 -223 325l170 218q317 -189 317 -528q0 -270 -167.5 -445t-433.5 -175q-442 0 -442 441q0 73 12 159zM499 1536q52 0 87.5 -35t35.5 -84q0 -69 -48 -118t-117 -49q-56 0 -90 34.5
t-34 90.5q0 64 49.5 112.5t116.5 48.5zM942 1536q52 0 87.5 -35t35.5 -84q0 -69 -48 -118t-117 -49q-56 0 -90 34.5t-34 90.5q0 64 49.5 112.5t116.5 48.5z" />
    <glyph glyph-name="omicrontonos" unicode="&#x3cc;" horiz-adv-x="1311" 
d="M684 1116q145 0 263.5 -67t184.5 -190t66 -276q0 -254 -181 -432.5t-448 -178.5q-232 0 -370 140.5t-138 367.5q0 274 187 455t436 181zM665 863q-164 0 -251.5 -117.5t-87.5 -254.5q0 -122 71.5 -196.5t190.5 -74.5q169 0 257.5 113.5t88.5 259.5q0 120 -75 195t-194 75
zM913 1639l-95 -382h-196l8 382h283z" />
    <glyph glyph-name="upsilontonos" unicode="&#x3cd;" 
d="M152 1089h266l-70 -532q-10 -72 -10 -121q0 -210 210 -210q137 0 220 101t83 250q0 182 -223 325l170 218q317 -189 317 -528q0 -270 -167.5 -445t-433.5 -175q-442 0 -442 441q0 73 12 159zM872 1639l-95 -382h-196l8 382h283z" />
    <glyph glyph-name="omegatonos" unicode="&#x3ce;" horiz-adv-x="1756" 
d="M793 133q-121 -161 -321 -161q-201 0 -314 116t-113 326q0 305 188.5 488t527.5 217l-12 -250q-439 -54 -439 -452q0 -199 184 -199q181 0 217 276l18 131h261l-18 -131q-6 -45 -6 -87q0 -189 150 -189q255 0 255 331q0 272 -338 320l54 250q265 -29 408.5 -172
t143.5 -370q1 -286 -144 -445.5t-413 -159.5q-208 0 -289 161zM1135 1639l-95 -382h-196l8 382h283z" />
    <glyph glyph-name="afii10023" unicode="&#x401;" horiz-adv-x="1065" 
d="M245 1471h799l-34 -261h-520l-42 -304h522l-33 -259h-522l-52 -390h525l-35 -257h-801zM446 1865q52 0 87.5 -35t35.5 -84q0 -69 -48 -118t-117 -49q-56 0 -90 34.5t-34 90.5q0 64 49.5 112.5t116.5 48.5zM889 1865q52 0 87.5 -35t35.5 -84q0 -69 -48 -118t-117 -49
q-56 0 -90 34.5t-34 90.5q0 64 49.5 112.5t116.5 48.5z" />
    <glyph glyph-name="afii10051" unicode="&#x402;" horiz-adv-x="1366" 
d="M429 0h-285l162 1195h-261l37 276h814l-38 -276h-268l-37 -279h93q230 0 344 -34t188.5 -135.5t74.5 -269.5q0 -229 -110 -370.5t-297 -141.5q-109 0 -246 59l121 225q48 -20 92 -20q148 0 148 217q0 114 -62 158t-265 44h-118z" />
    <glyph glyph-name="afii10052" unicode="&#x403;" horiz-adv-x="950" 
d="M268 1471h730l-37 -274h-453l-162 -1197h-277zM690 1976h323l-421 -391h-196z" />
    <glyph glyph-name="afii10053" unicode="&#x404;" horiz-adv-x="1593" 
d="M1279 443l163 -198q-197 -171 -354.5 -226.5t-323.5 -55.5q-312 0 -497.5 181t-185.5 476q0 379 271 633.5t632 254.5q367 0 594 -296l-221 -187q-168 211 -422 211q-173 0 -327.5 -105t-208.5 -280h563l-34 -255h-564q24 -181 150 -272.5t291 -91.5q125 0 233.5 47.5
t240.5 163.5zM355 720z" />
    <glyph glyph-name="afii10054" unicode="&#x405;" horiz-adv-x="1065" 
d="M1017 1266l-201 -178q-124 160 -231 160q-53 0 -88 -31.5t-35 -75.5q0 -41 32 -91t194 -221q86 -91 113 -129q65 -88 93.5 -164.5t28.5 -155.5q0 -177 -126 -297t-323 -120q-300 0 -489 285l212 171q128 -195 277 -195q71 0 119.5 46t48.5 111q0 51 -29.5 104t-168.5 200
q-147 155 -193 234q-62 107 -62 210q0 136 89 244q112 135 302 135q261 0 437 -242z" />
    <glyph glyph-name="afii10055" unicode="&#x406;" horiz-adv-x="573" 
d="M256 1471h270l-203 -1471h-265z" />
    <glyph glyph-name="afii10056" unicode="&#x407;" horiz-adv-x="573" 
d="M256 1471h270l-203 -1471h-265zM212 1865q52 0 87.5 -35t35.5 -84q0 -69 -48 -118t-117 -49q-56 0 -90 34.5t-34 90.5q0 64 49.5 112.5t116.5 48.5zM655 1865q52 0 87.5 -35t35.5 -84q0 -69 -48 -118t-117 -49q-56 0 -90 34.5t-34 90.5q0 64 49.5 112.5t116.5 48.5z" />
    <glyph glyph-name="afii10057" unicode="&#x408;" horiz-adv-x="983" 
d="M643 1471h276l-138 -1038q-28 -206 -70 -291.5t-122 -132t-187 -46.5q-133 0 -253.5 78t-195.5 222l219 133q58 -90 115 -130.5t101 -40.5q47 0 73 36t39 157z" />
    <glyph glyph-name="afii10058" unicode="&#x409;" horiz-adv-x="2050" 
d="M1123 915h293q233 0 377.5 -122t144.5 -345q0 -162 -83.5 -270.5t-193 -143t-329.5 -34.5h-299l-261 1081l-560 -1081h-297l766 1471h283zM1188 665l105 -398h44q135 0 188 11t90 54t37 115q0 218 -274 218h-190z" />
    <glyph glyph-name="afii10059" unicode="&#x40a;" horiz-adv-x="1937" 
d="M844 0l87 647h-492l-87 -647h-284l199 1471h283l-75 -556h493l75 556h282l-75 -556h79q217 0 358 -110t141 -316q0 -75 -22.5 -172t-101.5 -177.5t-170.5 -110t-273.5 -29.5h-416zM1214 647l-51 -380h71q118 0 179.5 14.5t99 60t37.5 116.5q0 190 -230 190l-47 -1h-59z
" />
    <glyph glyph-name="afii10060" unicode="&#x40b;" horiz-adv-x="1341" 
d="M590 1195l-37 -279h93q234 0 339.5 -33t174.5 -123.5t69 -238.5q0 -58 -11 -141l-52 -380h-284l53 373q8 51 8 80q0 80 -32.5 122t-91 57.5t-184.5 15.5h-119l-87 -648h-285l162 1195h-261l37 276h814l-38 -276h-268z" />
    <glyph glyph-name="afii10061" unicode="&#x40c;" horiz-adv-x="1266" 
d="M272 1471h283l-68 -506l467 506h337l-585 -639l417 -832h-313l-331 686l-35 -33l-88 -653h-283zM823 1976h323l-421 -391h-196z" />
    <glyph glyph-name="afii10062" unicode="&#x40e;" horiz-adv-x="1368" 
d="M565 340l-365 1131h314l236 -820l394 820h289l-535 -1052q-144 -284 -257.5 -368.5t-266.5 -84.5q-228 0 -382 214l208 185q59 -79 104 -104t107 -25q82 0 154 104zM443 1863h221q17 -40 51 -57q50 -25 124 -25q68 0 117.5 20.5t79.5 61.5h221q-39 -129 -153.5 -204.5
t-291.5 -75.5q-185 0 -277.5 77.5t-91.5 202.5z" />
    <glyph glyph-name="afii10145" unicode="&#x40f;" horiz-adv-x="1393" 
d="M68 0l199 1471h283l-164 -1219h492l165 1219h282l-198 -1471h-399l-30 -220h-262l30 220h-398z" />
    <glyph glyph-name="afii10017" unicode="&#x410;" horiz-adv-x="1515" 
d="M770 1471h233l366 -1471h-268l-78 313h-581l-169 -313h-297zM956 573l-118 483l-259 -483h377z" />
    <glyph glyph-name="afii10018" unicode="&#x411;" horiz-adv-x="1178" 
d="M71 0l199 1471h768l-36 -273h-490l-41 -304h62q257 0 389 -124.5t132 -314.5q0 -142 -66.5 -252t-169 -156.5t-335.5 -46.5h-412zM438 644l-52 -377h71q136 0 167 3.5t70.5 26t59.5 61t20 92.5q0 86 -57.5 140t-220.5 54h-58z" />
    <glyph glyph-name="afii10019" unicode="&#x412;" horiz-adv-x="1188" 
d="M266 1471h230q210 0 312 -45t164.5 -140t62.5 -205q0 -92 -44 -173.5t-127 -136.5q197 -137 197 -364q0 -118 -62.5 -216t-154.5 -144.5t-266 -46.5h-508zM465 887h50q112 0 152 16.5t68 61.5t28 100q0 51 -25 88t-65.5 50t-164.5 13zM383 261l166 -6q125 0 182 49
t57 134q0 62 -35.5 111t-94.5 69t-226 21z" />
    <glyph glyph-name="afii10020" unicode="&#x413;" horiz-adv-x="950" 
d="M268 1471h730l-37 -274h-453l-162 -1197h-277z" />
    <glyph glyph-name="afii10021" unicode="&#x414;" horiz-adv-x="1595" 
d="M753 1471h284l309 -1208h165l-66 -483h-272l30 220h-1011l-30 -220h-271l66 483h162zM840 1088l-428 -825h639z" />
    <glyph glyph-name="afii10022" unicode="&#x415;" horiz-adv-x="1065" 
d="M245 1471h799l-34 -261h-520l-42 -304h522l-33 -259h-522l-52 -390h525l-35 -257h-801z" />
    <glyph glyph-name="afii10024" unicode="&#x416;" horiz-adv-x="1905" 
d="M799 626l-45 54l-495 -680h-334l664 854l-400 617h328l320 -544l74 544h284l-74 -544l450 544h358l-599 -654l427 -817h-308l-323 672l-44 -42l-86 -630h-284z" />
    <glyph glyph-name="afii10025" unicode="&#x417;" horiz-adv-x="1053" 
d="M130 377q80 -93 134.5 -120t123.5 -27q104 0 170 52.5t66 143.5q0 75 -53 146.5t-222 71.5h-58l34 250h61q140 0 198 64.5t58 147.5q0 67 -43.5 111t-114.5 44q-87 0 -203 -101l-140 184q124 103 209.5 134t175.5 31q203 0 304.5 -96t101.5 -244q0 -257 -259 -358
q235 -123 235 -376q0 -213 -135.5 -343.5t-365.5 -130.5q-141 0 -264 46t-245 218z" />
    <glyph glyph-name="afii10026" unicode="&#x418;" horiz-adv-x="1393" 
d="M1330 1471l-200 -1471h-275l146 976l-695 -976h-244l199 1471h280l-162 -1017l719 1017h232z" />
    <glyph glyph-name="afii10027" unicode="&#x419;" horiz-adv-x="1393" 
d="M1330 1471l-200 -1471h-275l146 976l-695 -976h-244l199 1471h280l-162 -1017l719 1017h232zM462 1863h221q17 -40 51 -57q50 -25 124 -25q68 0 117.5 20.5t79.5 61.5h221q-39 -129 -153.5 -204.5t-291.5 -75.5q-185 0 -277.5 77.5t-91.5 202.5z" />
    <glyph glyph-name="afii10028" unicode="&#x41a;" horiz-adv-x="1266" 
d="M272 1471h283l-68 -506l467 506h337l-585 -639l417 -832h-313l-331 686l-35 -33l-88 -653h-283z" />
    <glyph glyph-name="afii10029" unicode="&#x41b;" horiz-adv-x="1440" 
d="M1033 0l-261 1081l-560 -1081h-297l766 1471h283l368 -1471h-299z" />
    <glyph glyph-name="afii10030" unicode="&#x41c;" horiz-adv-x="1843" 
d="M376 1471h250l249 -1025l508 1025h238l20 -1471h-258l-12 880l-436 -880h-211l-224 924l-235 -924h-264z" />
    <glyph glyph-name="afii10031" unicode="&#x41d;" horiz-adv-x="1393" 
d="M266 1471h277l-74 -555h503l75 555h278l-200 -1471h-276l91 668h-507l-90 -668h-275z" />
    <glyph glyph-name="afii10032" unicode="&#x41e;" horiz-adv-x="1720" 
d="M945 1508q303 0 500 -195t197 -495q0 -230 -116.5 -433.5t-310 -312.5t-444.5 -109q-314 0 -501.5 186t-187.5 490q0 345 224 593q250 276 639 276zM935 1247q-158 0 -288.5 -76.5t-210.5 -220t-80 -296.5q0 -181 111 -307t319 -126q241 0 409.5 170t168.5 413
q0 201 -118.5 322t-310.5 121z" />
    <glyph glyph-name="afii10033" unicode="&#x41f;" horiz-adv-x="1393" 
d="M261 1471h1069l-199 -1471h-282l163 1209h-503l-163 -1209h-284z" />
    <glyph glyph-name="afii10034" unicode="&#x420;" horiz-adv-x="1147" 
d="M269 1471h259q236 0 333 -41q120 -51 182 -142t62 -213q0 -134 -72.5 -242.5t-194.5 -158t-406 -53.5l-84 -621h-277zM465 881q226 1 295 47t69 137q0 51 -27 86t-80 49t-210 14z" />
    <glyph glyph-name="afii10035" unicode="&#x421;" horiz-adv-x="1597" 
d="M1524 1281l-201 -186q-65 75 -159 115.5t-204 40.5q-154 0 -295 -79t-219.5 -209t-78.5 -277q0 -200 138 -332.5t354 -132.5q231 0 400 134l163 -215q-251 -177 -581 -177q-232 0 -394.5 88t-261 258.5t-98.5 369.5q0 213 116.5 408.5t315.5 308t434 112.5
q330 0 571 -227z" />
    <glyph glyph-name="afii10036" unicode="&#x422;" horiz-adv-x="860" 
d="M79 1471h898l-32 -262h-313l-159 -1209h-274l159 1209h-313z" />
    <glyph glyph-name="afii10037" unicode="&#x423;" horiz-adv-x="1368" 
d="M565 340l-365 1131h314l236 -820l394 820h289l-535 -1052q-144 -284 -257.5 -368.5t-266.5 -84.5q-228 0 -382 214l208 185q59 -79 104 -104t107 -25q82 0 154 104z" />
    <glyph glyph-name="afii10038" unicode="&#x424;" horiz-adv-x="1505" 
d="M976 1471l-27 -190q300 0 411 -118.5t111 -284.5q0 -153 -87.5 -275t-216.5 -162.5t-337 -40.5l-54 -400h-277l55 400q-212 1 -317 55.5t-152.5 151t-47.5 200.5q0 110 56.5 224t175.5 181.5t404 68.5l25 190h278zM588 654l49 373h-71q-159 0 -210 -66t-51 -137
q0 -170 223 -170h60zM916 1027l-53 -373h72q76 0 130 14.5t92 67.5t38 120q0 171 -222 171h-57z" />
    <glyph glyph-name="afii10039" unicode="&#x425;" horiz-adv-x="1393" 
d="M250 1471h284l207 -455l321 455h320l-518 -728l338 -743h-286l-224 499l-354 -499h-322l552 772z" />
    <glyph glyph-name="afii10040" unicode="&#x426;" horiz-adv-x="1485" 
d="M69 0l199 1471h283l-164 -1219h492l165 1219h282l-163 -1219h298l-64 -472h-262l28 220h-1094z" />
    <glyph glyph-name="afii10041" unicode="&#x427;" horiz-adv-x="1235" 
d="M773 644h-93q-275 0 -375.5 45.5t-154 122.5t-53.5 226q0 60 11 141l39 292h284l-40 -287q-8 -52 -8 -80q0 -68 25 -110t66.5 -60t142.5 -18h193l75 555h283l-199 -1471h-283z" />
    <glyph glyph-name="afii10042" unicode="&#x428;" horiz-adv-x="1985" 
d="M786 252l165 1219h283l-165 -1219h400l165 1219h283l-199 -1471h-1649l199 1471h283l-164 -1219h399z" />
    <glyph glyph-name="afii10043" unicode="&#x429;" horiz-adv-x="2075" 
d="M1468 252l165 1219h283l-163 -1219h298l-64 -472h-262l28 220h-1685l199 1471h283l-164 -1219h399l165 1219h283l-165 -1219h400zM1985 0z" />
    <glyph glyph-name="afii10044" unicode="&#x42a;" horiz-adv-x="1257" 
d="M166 0l163 1208h-329l35 263h608l-74 -556h61q115 0 230 -36.5t200.5 -144.5t85.5 -272q0 -158 -72 -267.5t-177 -152t-319 -42.5h-412zM535 665l-54 -398h71q114 0 174 13t101 63t41 122q0 94 -72 147t-203 53h-58z" />
    <glyph glyph-name="afii10045" unicode="&#x42b;" horiz-adv-x="1733" 
d="M1388 1471h277l-198 -1471h-278zM472 915h62q237 0 376.5 -123t139.5 -330q0 -158 -72.5 -267.5t-177.5 -152t-319 -42.5h-412l199 1471h278zM438 665l-54 -398h71q114 0 174.5 13t101 63t40.5 122q0 89 -68 144.5t-207 55.5h-58z" />
    <glyph glyph-name="afii10046" unicode="&#x42c;" horiz-adv-x="1159" 
d="M471 915h62q236 0 376 -122.5t140 -330.5q0 -158 -72.5 -267.5t-177.5 -152t-319 -42.5h-411l199 1471h278zM437 665l-54 -398h71q114 0 174.5 13t101 63t40.5 122q0 89 -68 144.5t-207 55.5h-58z" />
    <glyph glyph-name="afii10047" unicode="&#x42d;" horiz-adv-x="1552" 
d="M602 596l34 255h564q-14 174 -132.5 279.5t-299.5 105.5q-261 0 -485 -211l-170 187q137 141 320 218.5t361 77.5q277 0 482 -175t205 -479q0 -384 -245 -638t-617 -254q-153 0 -308.5 46t-322.5 237l217 198q174 -211 416 -211q178 0 325.5 89.5t213.5 274.5h-558z
M1203 754z" />
    <glyph glyph-name="afii10048" unicode="&#x42e;" horiz-adv-x="2232" 
d="M469 916h191q289 592 829 592q288 0 480 -189.5t192 -472.5q0 -367 -258.5 -625t-611.5 -258q-164 0 -303.5 63.5t-226.5 170t-112.5 194.5t-25.5 253h-190l-87 -644h-278l199 1471h277zM1878 806q0 165 -109.5 296.5t-310.5 131.5q-210 0 -383 -169.5t-173 -420.5
q0 -179 124 -294.5t301 -115.5q221 0 386 171.5t165 400.5z" />
    <glyph glyph-name="afii10049" unicode="&#x42f;" horiz-adv-x="1208" 
d="M1142 1471l-199 -1471h-280l80 592h-85l-376 -592h-306l423 647q-223 99 -223 352q0 158 91.5 281.5t216.5 157t360 33.5h298zM780 865l45 332h-92q-108 0 -155 -10.5t-85 -59t-38 -112.5q0 -150 222 -150h103z" />
    <glyph glyph-name="afii10065" unicode="&#x430;" horiz-adv-x="1352" 
d="M984 1088h267l-142 -1088h-264l15 117q-87 -81 -162.5 -113t-169.5 -32q-216 0 -343.5 159t-127.5 370q0 161 81 306.5t217.5 227t285.5 81.5q100 0 184.5 -46t139.5 -134zM590 210q98 0 171 44t122.5 138t49.5 192q0 129 -74.5 207.5t-196.5 78.5q-142 0 -241 -105
t-99 -271q0 -128 75 -206t193 -78z" />
    <glyph glyph-name="afii10066" unicode="&#x431;" horiz-adv-x="1360" 
d="M1318 1531l-35 -252q-110 -17 -291 -17t-269 -16t-167 -72.5t-117 -128.5t-69 -217q159 283 438 283q182 0 318.5 -122.5t136.5 -345.5q0 -278 -191.5 -474.5t-468.5 -196.5q-157 0 -270.5 76t-170.5 187.5t-57 314.5q0 266 64.5 458.5t168 306t272.5 160t521 46.5
q102 0 187 10zM983 603q0 109 -68 182.5t-190 73.5q-142 0 -241.5 -108t-99.5 -251q0 -127 72 -200t183 -73q137 0 240.5 108t103.5 268z" />
    <glyph glyph-name="afii10067" unicode="&#x432;" horiz-adv-x="1120" 
d="M75 0l147 1088h422q163 0 248 -78t85 -186q0 -176 -201 -237q216 -86 216 -281q0 -306 -433 -306h-484zM438 653h121q56 0 100 36t44 89q0 113 -144 113h-89zM375 201h135q188 0 188 124q0 139 -179 139h-107z" />
    <glyph glyph-name="afii10068" unicode="&#x433;" horiz-adv-x="805" 
d="M193 1088h635l-35 -260h-361l-112 -828h-274z" />
    <glyph glyph-name="afii10069" unicode="&#x434;" horiz-adv-x="1294" 
d="M176 0l-30 -189h-256l57 420h164l490 857h177l264 -857h166l-57 -420h-261l26 189h-740zM757 231l-106 515h-17l-244 -515h367z" />
    <glyph glyph-name="afii10070" unicode="&#x435;" horiz-adv-x="1311" 
d="M861 319l235 -122q-79 -104 -209.5 -164.5t-289.5 -60.5q-249 0 -392.5 140t-143.5 372q0 265 179.5 448.5t433.5 183.5q153 0 272.5 -67t188.5 -195t69 -278q0 -47 -10 -110h-868q4 -113 74.5 -180t194.5 -67q150 0 266 100zM929 662q-30 100 -100 151.5t-169 51.5
q-98 0 -177 -53t-120 -150h566z" />
    <glyph glyph-name="afii10072" unicode="&#x436;" horiz-adv-x="1712" 
d="M683 372l-41 54l-395 -426h-368l620 598l-393 490h305l311 -421l57 421h273l-57 -421l425 421h335l-552 -509l434 -579h-336l-281 433l-64 -61l-51 -372h-273z" />
    <glyph glyph-name="afii10073" unicode="&#x437;" horiz-adv-x="965" 
d="M175 1004q146 112 319 112q154 0 246.5 -74t92.5 -200q0 -77 -35.5 -137t-148.5 -112q162 -100 162 -270q0 -155 -109.5 -251t-326.5 -96q-254 0 -383 125l177 190q86 -72 178 -72q72 0 118 37t46 80q0 40 -33.5 82.5t-94.5 42.5h-71l27 195h54q70 0 111 35.5t41 86.5
q0 47 -30.5 75t-79.5 28q-70 0 -178 -65z" />
    <glyph glyph-name="afii10074" unicode="&#x438;" 
d="M192 0h-146l146 1088h267l-82 -635l612 635h142l-147 -1088h-272l88 623z" />
    <glyph glyph-name="afii10075" unicode="&#x439;" 
d="M192 0h-146l146 1088h267l-82 -635l612 635h142l-147 -1088h-272l88 623zM324 1567h221q17 -40 51 -57q50 -25 124 -25q68 0 117.5 20.5t79.5 61.5h221q-39 -129 -153.5 -204.5t-291.5 -75.5q-185 0 -277.5 77.5t-91.5 202.5z" />
    <glyph glyph-name="afii10076" unicode="&#x43a;" horiz-adv-x="1182" 
d="M193 1088h273l-58 -430l444 430h340l-545 -520l444 -568h-347l-305 395l-75 -64l-45 -331h-273z" />
    <glyph glyph-name="afii10077" unicode="&#x43b;" horiz-adv-x="1122" 
d="M1020 0h-286l-175 666l-358 -666h-285l611 1088h176z" />
    <glyph glyph-name="afii10078" unicode="&#x43c;" horiz-adv-x="1649" 
d="M785 402l427 686h179l125 -1088h-267l-59 638l-410 -638h-112l-231 638l-232 -638h-266l419 1088h180z" />
    <glyph glyph-name="afii10079" unicode="&#x43d;" 
d="M319 0h-273l147 1088h273l-53 -392h391l53 392h274l-147 -1088h-274l61 451h-391z" />
    <glyph glyph-name="afii10080" unicode="&#x43e;" horiz-adv-x="1311" 
d="M684 1116q145 0 263.5 -67t184.5 -190t66 -276q0 -254 -181 -432.5t-448 -178.5q-232 0 -370 140.5t-138 367.5q0 274 187 455t436 181zM665 863q-164 0 -251.5 -117.5t-87.5 -254.5q0 -122 71.5 -196.5t190.5 -74.5q169 0 257.5 113.5t88.5 259.5q0 120 -75 195t-194 75
z" />
    <glyph glyph-name="afii10081" unicode="&#x43f;" 
d="M319 0h-273l147 1088h938l-147 -1088h-274l111 825h-390z" />
    <glyph glyph-name="afii10082" unicode="&#x440;" horiz-adv-x="1352" 
d="M258 -398h-267l195 1486h263l-15 -117q87 82 162.5 113.5t169.5 31.5q217 0 344 -159t127 -369q0 -161 -81 -307t-217.5 -227.5t-284.5 -81.5q-100 0 -185 46t-139 134zM704 879q-97 0 -170.5 -44.5t-123 -138.5t-49.5 -192q0 -129 74.5 -207.5t196.5 -78.5
q142 0 241 105t99 271q0 128 -75 206.5t-193 78.5z" />
    <glyph glyph-name="afii10083" unicode="&#x441;" horiz-adv-x="1311" 
d="M1187 863l-226 -123q-96 122 -258 122q-109 0 -193 -46.5t-134 -134.5t-50 -186q0 -126 79 -202t217 -76q191 0 293 129l210 -148q-89 -106 -221.5 -166t-295.5 -60q-254 0 -400.5 140t-146.5 370q0 263 181 448.5t466 185.5q321 0 479 -253z" />
    <glyph glyph-name="afii10084" unicode="&#x442;" horiz-adv-x="1098" 
d="M90 1088h1014l-35 -260h-361l-113 -828h-274l111 828h-378z" />
    <glyph glyph-name="afii10085" unicode="&#x443;" horiz-adv-x="1147" 
d="M45 1088h262l212 -646l372 646h288l-855 -1486h-282l309 546z" />
    <glyph glyph-name="afii10086" unicode="&#x444;" horiz-adv-x="2083" 
d="M828 111q-127 -143 -321 -143q-198 0 -322 137.5t-124 330.5q0 285 170.5 480.5t413.5 195.5q196 0 301 -137l72 533h271l-72 -533q131 141 332 141q191 0 313 -130.5t122 -339.5q0 -291 -180.5 -482.5t-409.5 -191.5q-195 0 -293 144l-69 -514h-272zM1707 607
q0 114 -66 184.5t-177 70.5q-143 0 -236 -116.5t-93 -272.5q0 -126 67.5 -189.5t171.5 -63.5q138 0 235.5 116t97.5 271zM909 605q0 119 -65 187t-176 68q-137 0 -233.5 -115t-96.5 -260q0 -113 66 -190t180 -77q141 0 233 108t92 279z" />
    <glyph glyph-name="afii10087" unicode="&#x445;" horiz-adv-x="1147" 
d="M60 1088h294l190 -309l226 309h311l-395 -541l335 -547h-294l-202 329l-244 -329h-311l414 560z" />
    <glyph glyph-name="afii10088" unicode="&#x446;" horiz-adv-x="1325" 
d="M1019 262h259l-61 -453h-260l25 191h-936l147 1088h274l-112 -825h390l113 825h273z" />
    <glyph glyph-name="afii10089" unicode="&#x447;" horiz-adv-x="1139" 
d="M678 432h-189q-162 0 -256.5 41t-127.5 102t-33 151q0 33 5 73l40 289h274l-29 -214q-7 -50 -7 -82q0 -52 22.5 -76.5t69 -31t185.5 -6.5h79l56 410h273l-147 -1088h-273z" />
    <glyph glyph-name="afii10090" unicode="&#x448;" horiz-adv-x="1862" 
d="M1614 0h-1568l147 1088h274l-112 -827h374l112 827h274l-112 -827h374l112 827h274z" />
    <glyph glyph-name="afii10091" unicode="&#x449;" horiz-adv-x="1958" 
d="M1649 262h263l-61 -453h-260l25 191h-1571l147 1088h274l-112 -827h375l111 827h274l-112 -827h374l112 827h274zM1862 0z" />
    <glyph glyph-name="afii10092" unicode="&#x44a;" horiz-adv-x="1176" 
d="M296 845h-276l33 243h549l-53 -392h81q249 0 340 -93.5t91 -233.5q0 -100 -41.5 -184t-100.5 -123t-126.5 -50.5t-227.5 -11.5h-384zM483 210h83q119 0 164 37.5t45 111.5q0 115 -144 115h-113z" />
    <glyph glyph-name="afii10093" unicode="&#x44b;" horiz-adv-x="1608" 
d="M1236 1088h273l-146 -1088h-274zM466 1088l-53 -392h81q250 0 341 -93.5t91 -233.5q0 -100 -41.5 -184t-101 -123t-127 -50.5t-226.5 -11.5h-384l147 1088h273zM347 210h83q120 0 165 37.5t45 111.5q0 115 -144 115h-113z" />
    <glyph glyph-name="afii10094" unicode="&#x44c;" horiz-adv-x="1040" 
d="M466 1088l-53 -392h81q250 0 341 -93.5t91 -233.5q0 -100 -41.5 -184t-101 -123t-127 -50.5t-226.5 -11.5h-384l147 1088h273zM347 210h83q120 0 165 37.5t45 111.5q0 115 -144 115h-113z" />
    <glyph glyph-name="afii10095" unicode="&#x44d;" horiz-adv-x="1241" 
d="M825 430h-367l33 237h363q0 83 -73 141.5t-205 58.5q-172 0 -311 -124l-210 125q225 248 540 248q237 0 387.5 -131.5t150.5 -364.5q0 -277 -182 -462.5t-482 -185.5q-144 0 -266.5 42.5t-226.5 184.5l235 147q76 -130 282 -130q238 0 332 214z" />
    <glyph glyph-name="afii10096" unicode="&#x44e;" horiz-adv-x="1782" 
d="M320 0h-274l147 1088h274l-60 -431h146q77 228 250.5 343.5t369.5 115.5q199 0 350 -124t151 -361q0 -281 -184.5 -470t-473.5 -189q-202 0 -337 115t-152 320h-153zM1397 598q0 113 -68 187t-191 74q-141 0 -241.5 -112t-100.5 -252q0 -125 69.5 -196.5t186.5 -71.5
q143 0 244 107t101 264z" />
    <glyph glyph-name="afii10097" unicode="&#x44f;" horiz-adv-x="1081" 
d="M285 450q-160 91 -160 270q0 90 51 178t119.5 130t140 51t273.5 9h274l-147 -1088h-274l53 394h-82l-298 -394h-308zM641 599l36 261h-82q-175 0 -175 -142q0 -65 40 -92t116 -27h65z" />
    <glyph glyph-name="afii10071" unicode="&#x451;" horiz-adv-x="1311" 
d="M861 319l235 -122q-79 -104 -209.5 -164.5t-289.5 -60.5q-249 0 -392.5 140t-143.5 372q0 265 179.5 448.5t433.5 183.5q153 0 272.5 -67t188.5 -195t69 -278q0 -47 -10 -110h-868q4 -113 74.5 -180t194.5 -67q150 0 266 100zM929 662q-30 100 -100 151.5t-169 51.5
q-98 0 -177 -53t-120 -150h566zM509 1536q52 0 87.5 -35t35.5 -84q0 -69 -48 -118t-117 -49q-56 0 -90 34.5t-34 90.5q0 64 49.5 112.5t116.5 48.5zM952 1536q52 0 87.5 -35t35.5 -84q0 -69 -48 -118t-117 -49q-56 0 -90 34.5t-34 90.5q0 64 49.5 112.5t116.5 48.5z" />
    <glyph glyph-name="afii10099" unicode="&#x452;" horiz-adv-x="1235" 
d="M450 978q172 138 322 138q139 0 227.5 -85t88.5 -224q0 -47 -26 -234l-78 -573q-18 -129 -51.5 -229t-118.5 -148.5t-175 -48.5q-87 0 -199 41l29 215q57 -31 109 -31q62 0 91.5 40.5t43.5 140.5l66 497q21 161 21 218q0 171 -155 171q-72 0 -131.5 -50.5t-86.5 -128
t-50 -250.5l-60 -437h-271l166 1225h-155l24 174h155l14 109h271l-14 -109h348l-24 -174h-348z" />
    <glyph glyph-name="afii10100" unicode="&#x453;" horiz-adv-x="805" 
d="M193 1088h635l-35 -260h-361l-112 -828h-274zM686 1678h323l-421 -391h-196z" />
    <glyph glyph-name="afii10101" unicode="&#x454;" horiz-adv-x="1335" 
d="M930 346l195 -147q-200 -227 -524 -227q-249 0 -395 137t-146 351q0 272 207.5 464t490.5 192q333 0 469 -248l-244 -125q-91 119 -254 119q-247 0 -351 -195h368l-32 -237h-368q42 -209 282 -209q183 0 302 125zM337 500z" />
    <glyph glyph-name="afii10102" unicode="&#x455;" horiz-adv-x="901" 
d="M790 936l-127 -204q-49 73 -103 107.5t-101 34.5q-36 0 -61 -20t-25 -45q0 -24 20 -48q19 -24 115 -93q153 -110 201.5 -188.5t48.5 -170.5q0 -121 -99.5 -229t-288.5 -108q-109 0 -198.5 44t-199.5 161l165 192q112 -148 245 -148q53 0 84.5 25.5t31.5 60.5
q0 28 -24 57.5t-131 105.5q-124 88 -171 151q-66 88 -66 186q0 137 103.5 223t244.5 86q99 0 188 -47t148 -133z" />
    <glyph glyph-name="afii10103" unicode="&#x456;" horiz-adv-x="491" 
d="M324 1533q68 0 116.5 -48.5t48.5 -116.5t-48.5 -116.5t-116.5 -48.5t-116.5 48.5t-48.5 116.5t48.5 116.5t116.5 48.5zM158 1088h264l-146 -1088h-266z" />
    <glyph glyph-name="afii10104" unicode="&#x457;" horiz-adv-x="491" 
d="M158 1088h264l-146 -1088h-266zM99 1536q52 0 87.5 -35t35.5 -84q0 -69 -48 -118t-117 -49q-56 0 -90 34.5t-34 90.5q0 64 49.5 112.5t116.5 48.5zM542 1536q52 0 87.5 -35t35.5 -84q0 -69 -48 -118t-117 -49q-56 0 -90 34.5t-34 90.5q0 64 49.5 112.5t116.5 48.5z" />
    <glyph glyph-name="afii10105" unicode="&#x458;" horiz-adv-x="533" 
d="M348 1533q69 0 117 -48.5t48 -116.5t-48 -116.5t-117 -48.5q-68 0 -116.5 48.5t-48.5 116.5t48.5 116.5t116.5 48.5zM178 1088h266l-130 -963q-37 -272 -75.5 -364t-108.5 -139.5t-161 -47.5q-70 0 -164 39l32 240q45 -29 83 -29q45 0 68 38q33 55 56 228z" />
    <glyph glyph-name="afii10106" unicode="&#x459;" horiz-adv-x="1610" 
d="M741 0l-180 687l-369 -687h-277l611 1088h176l112 -392h196q265 0 375 -88t110 -252q0 -147 -88 -251.5t-299 -104.5h-367zM880 474l71 -264h48q130 0 164 50t34 99q0 115 -144 115h-173z" />
    <glyph glyph-name="afii10107" unicode="&#x45a;" horiz-adv-x="1714" 
d="M1140 1088l-53 -392h81q249 0 340 -94t91 -233q0 -100 -41 -184t-100.5 -123t-127 -50.5t-226.5 -11.5h-385l61 451h-401l-61 -451h-273l147 1088h273l-53 -392h401l53 392h274zM1057 474l-36 -264h83q120 0 165 37.5t45 111.5q0 115 -144 115h-113z" />
    <glyph glyph-name="afii10108" unicode="&#x45b;" 
d="M501 1399h353l-23 -174h-354l-34 -247q147 138 318 138q145 0 233 -91.5t88 -223.5q0 -64 -17 -191l-81 -610h-265l79 595q12 91 12 137q0 73 -42.5 105.5t-101.5 32.5q-72 0 -141 -52t-101 -136t-61 -297l-51 -385h-266l166 1225h-156l24 174h155l15 109h265z" />
    <glyph glyph-name="afii10109" unicode="&#x45c;" horiz-adv-x="1182" 
d="M193 1088h273l-58 -430l444 430h340l-545 -520l444 -568h-347l-305 395l-75 -64l-45 -331h-273zM836 1678h323l-421 -391h-196z" />
    <glyph glyph-name="afii10110" unicode="&#x45e;" horiz-adv-x="1147" 
d="M45 1088h262l212 -646l372 646h288l-855 -1486h-282l309 546zM260 1567h221q17 -40 51 -57q50 -25 124 -25q68 0 117.5 20.5t79.5 61.5h221q-39 -129 -153.5 -204.5t-291.5 -75.5q-185 0 -277.5 77.5t-91.5 202.5z" />
    <glyph glyph-name="afii10193" unicode="&#x45f;" 
d="M661 0l-25 -191h-256l24 191h-358l147 1088h274l-112 -825h390l113 825h273l-147 -1088h-323z" />
    <glyph glyph-name="afii10050" unicode="&#x490;" horiz-adv-x="944" 
d="M265 1471h462l33 214h264l-66 -488h-453l-162 -1197h-277z" />
    <glyph glyph-name="afii10098" unicode="&#x491;" horiz-adv-x="836" 
d="M193 1088h402l26 161h251l-54 -421h-386l-112 -828h-274z" />
    <glyph glyph-name="Wgrave" unicode="&#x1e80;" horiz-adv-x="1843" 
d="M132 1471h252l84 -953l451 953h208l175 -928l327 928h267l-520 -1471h-226l-185 974l-461 -974h-241zM735 2006h322l182 -392h-195z" />
    <glyph glyph-name="wgrave" unicode="&#x1e81;" horiz-adv-x="1638" 
d="M52 1088h257l150 -583l317 583h105l152 -583l315 583h284l-591 -1088h-129l-148 575l-310 -575h-127zM528 1677h322l182 -392h-195z" />
    <glyph glyph-name="Wacute" unicode="&#x1e82;" horiz-adv-x="1843" 
d="M132 1471h252l84 -953l451 953h208l175 -928l327 928h267l-520 -1471h-226l-185 974l-461 -974h-241zM1209 2006h323l-421 -391h-196z" />
    <glyph glyph-name="wacute" unicode="&#x1e83;" horiz-adv-x="1638" 
d="M52 1088h257l150 -583l317 583h105l152 -583l315 583h284l-591 -1088h-129l-148 575l-310 -575h-127zM1027 1677h323l-421 -391h-196z" />
    <glyph glyph-name="Wdieresis" unicode="&#x1e84;" horiz-adv-x="1843" 
d="M132 1471h252l84 -953l451 953h208l175 -928l327 928h267l-520 -1471h-226l-185 974l-461 -974h-241zM865 1865q52 0 87.5 -35t35.5 -84q0 -69 -48 -118t-117 -49q-56 0 -90 34.5t-34 90.5q0 64 49.5 112.5t116.5 48.5zM1308 1865q52 0 87.5 -35t35.5 -84q0 -69 -48 -118
t-117 -49q-56 0 -90 34.5t-34 90.5q0 64 49.5 112.5t116.5 48.5z" />
    <glyph glyph-name="wdieresis" unicode="&#x1e85;" horiz-adv-x="1638" 
d="M52 1088h257l150 -583l317 583h105l152 -583l315 583h284l-591 -1088h-129l-148 575l-310 -575h-127zM670 1524q52 0 87.5 -35t35.5 -84q0 -69 -48 -118t-117 -49q-56 0 -90 34.5t-34 90.5q0 64 49.5 112.5t116.5 48.5zM1113 1524q52 0 87.5 -35t35.5 -84q0 -69 -48 -118
t-117 -49q-56 0 -90 34.5t-34 90.5q0 64 49.5 112.5t116.5 48.5z" />
    <glyph glyph-name="Ygrave" unicode="&#x1ef2;" horiz-adv-x="1270" 
d="M66 1471h279l230 -589l418 589h317l-628 -883l-79 -588h-276l81 588zM334 2006h322l182 -392h-195z" />
    <glyph glyph-name="ygrave" unicode="&#x1ef3;" horiz-adv-x="1188" 
d="M45 1088h262l212 -646l372 646h288l-855 -1486h-282l309 546zM273 1677h322l182 -392h-195z" />
    <glyph glyph-name="afii00208" unicode="&#x2015;" horiz-adv-x="1536" 
d="M-33 469v242h1560v-242h-1560z" />
    <glyph glyph-name="quotereversed" unicode="&#x201b;" horiz-adv-x="573" 
d="M510 1508l-40 -286h-100q4 -88 59 -198l-108 -75q-58 98 -74.5 158t-16.5 146q0 60 11 130l19 125h250z" />
    <glyph glyph-name="radicalex" unicode="&#x203e;" horiz-adv-x="1147" 
d="M-42 1869h1231v-74h-1231v74z" />
    <glyph glyph-name="afii08941" unicode="&#x20a4;" horiz-adv-x="1147" 
d="M529 941h349l-23 -173h-303q4 -47 5 -99h287l-24 -173h-277q-23 -109 -102 -253q20 0 114 -13q50 -6 88 -6q100 0 142 109h267q-44 -172 -158 -271t-264 -99q-71 0 -225 19q-145 18 -195 18q-100 0 -236 -41l34 251q70 24 141 33q96 180 114 253h-216l23 173h212
q-1 55 -7 99h-194l24 173h135q-12 67 -12 125q0 187 132 314.5t351 127.5q179 0 271.5 -97.5t92.5 -228.5q0 -41 -9 -94h-269q4 32 4 53q0 50 -32 81.5t-90 31.5q-71 0 -116 -50.5t-45 -138.5q0 -44 11 -124z" />
    <glyph glyph-name="afii61352" unicode="&#x2116;" horiz-adv-x="2259" 
d="M264 1471h242l533 -1000l135 1000h269l-198 -1471h-236l-540 1011l-135 -1011h-265zM2174 696q0 -154 -110.5 -271t-278.5 -117q-148 0 -229.5 92t-81.5 216q0 151 117 270t279 119q132 0 218 -89t86 -220zM1991 686q0 68 -40 108t-104 40q-82 0 -137 -60t-55 -142
q0 -69 42.5 -111t105.5 -42q79 0 133.5 64.5t54.5 142.5zM1435 175h686l-24 -175h-686z" />
    <glyph glyph-name="estimated" unicode="&#x212e;" 
d="M308 531v-371q120 -121 298 -121q254 0 395 246l72 -43q-118 -170 -231.5 -223t-235.5 -53q-232 0 -380.5 158.5t-148.5 406.5q0 252 149.5 408.5t379.5 156.5q214 0 366 -142t163 -423h-827zM904 605v297q-124 121 -300 121q-175 0 -296 -122v-296h596z" />
    <glyph glyph-name="oneeighth" unicode="&#x215b;" horiz-adv-x="1720" 
d="M258 -37l988 1545h171l-988 -1545h-171zM305 1489h279l-122 -756h-183l96 602h-133zM1469 407q129 -49 129 -176q0 -112 -90.5 -180.5t-227.5 -68.5q-131 0 -208.5 67t-77.5 150q0 146 182 223q-90 48 -90 143q0 87 80 148.5t197 61.5q109 0 182 -56.5t73 -134.5
q0 -118 -149 -177zM1430 561q0 60 -71 60q-41 0 -66 -21t-25 -50q0 -63 72 -63q38 0 64 21.5t26 52.5zM1417 239q0 38 -27.5 69t-79.5 31q-58 0 -94 -35.5t-36 -79.5q0 -39 30 -64t80 -25q58 0 92.5 30.5t34.5 73.5z" />
    <glyph glyph-name="threeeighths" unicode="&#x215c;" horiz-adv-x="1720" 
d="M359 1286h-174q11 107 88 164.5t181 57.5q110 0 174 -62t64 -135q0 -97 -119 -173q102 -69 102 -168q0 -108 -92.5 -181.5t-217.5 -73.5q-96 0 -163 44t-89 98.5t-22 126.5h176q3 -115 111 -115q53 0 83.5 33t30.5 76q0 95 -163 95l24 141q152 0 152 87q0 53 -69 53
q-66 0 -77 -68zM296 -37l988 1545h171l-988 -1545h-171zM1469 407q129 -49 129 -176q0 -112 -90.5 -180.5t-227.5 -68.5q-131 0 -208.5 67t-77.5 150q0 146 182 223q-90 48 -90 143q0 87 80 148.5t197 61.5q109 0 182.5 -56.5t73.5 -134.5q0 -118 -150 -177zM1431 561
q0 60 -72 60q-41 0 -66 -21t-25 -50q0 -63 72 -63q39 0 65 21.5t26 52.5zM1417 239q0 38 -27.5 69t-79.5 31q-57 0 -93.5 -35.5t-36.5 -79.5q0 -39 30 -64t81 -25q57 0 91.5 30.5t34.5 73.5z" />
    <glyph glyph-name="fiveeighths" unicode="&#x215d;" horiz-adv-x="1720" 
d="M296 -37l988 1545h171l-988 -1545h-171zM293 1489h438l-24 -152h-284l-38 -105q29 8 61 8q103 0 167 -58t64 -166q0 -129 -88 -215t-228 -86q-200 0 -292 166l162 63q63 -75 137 -75q56 0 88.5 35.5t32.5 87.5q0 40 -24 66.5t-63 26.5q-51 0 -82 -46l-164 45zM1470 407
q128 -49 128 -176q0 -112 -90 -180.5t-228 -68.5q-131 0 -208 67t-77 150q0 146 181 223q-90 48 -90 143q0 87 80 148.5t197 61.5q109 0 182.5 -56.5t73.5 -134.5q0 -118 -149 -177zM1431 561q0 60 -72 60q-41 0 -66 -21t-25 -50q0 -63 72 -63q39 0 65 21.5t26 52.5z
M1418 239q0 38 -28 69t-79 31q-58 0 -94.5 -35.5t-36.5 -79.5q0 -39 30 -64t81 -25q57 0 92 30.5t35 73.5z" />
    <glyph glyph-name="seveneighths" unicode="&#x215e;" horiz-adv-x="1720" 
d="M245 -37l988 1545h171l-988 -1545h-171zM192 1489h565l-10 -98l-441 -676l-140 92l354 528h-351zM1469 407q128 -49 128 -176q0 -112 -90 -180.5t-228 -68.5q-131 0 -208 67t-77 150q0 146 182 223q-91 48 -91 143q0 87 80 148.5t197 61.5q109 0 182.5 -56.5t73.5 -134.5
q0 -118 -149 -177zM1430 561q0 60 -71 60q-41 0 -66.5 -21t-25.5 -50q0 -63 72 -63q39 0 65 21.5t26 52.5zM1417 239q0 41 -29.5 70.5t-77.5 29.5q-58 0 -94 -35.5t-36 -79.5q0 -39 30 -64t80 -25q57 0 92 30.5t35 73.5z" />
    <glyph glyph-name="house" unicode="&#x2302;" 
d="M153 0v634l461 519l462 -519v-634h-923zM234 81h761v519l-381 427l-380 -427v-519z" />
    <glyph glyph-name="revlogicalnot" unicode="&#x2310;" 
d="M113 1074h1000v-249h-750v-428h-250v677z" />
    <glyph glyph-name="integraltp" unicode="&#x2320;" 
d="M687 -515h-145v1811q0 207 86 324t206 117q74 0 106 -34.5t32 -74.5q0 -41 -26.5 -66.5t-61.5 -25.5q-34 0 -55.5 13.5t-42.5 47.5q-24 37 -47 37q-29 0 -40.5 -24.5t-11.5 -153.5v-1971z" />
    <glyph glyph-name="integralbt" unicode="&#x2321;" 
d="M542 1737h145v-1811q0 -207 -86 -324t-206 -117q-59 0 -98.5 28t-39.5 81q0 41 26.5 66.5t60.5 25.5q35 0 56.5 -14t42.5 -47q24 -37 47 -37q29 0 40.5 24t11.5 154v1971z" />
    <glyph glyph-name="SF100000" unicode="&#x2500;" horiz-adv-x="1460" 
d="M1478 534h-1496v175h1496v-175z" />
    <glyph glyph-name="SF110000" unicode="&#x2502;" horiz-adv-x="1270" 
d="M452 -621v2485h175v-2485h-175z" />
    <glyph glyph-name="SF010000" unicode="&#x250c;" horiz-adv-x="1460" 
d="M1479 709v-175h-661v-1155h-175v1330h836z" />
    <glyph glyph-name="SF030000" unicode="&#x2510;" horiz-adv-x="1460" 
d="M642 534h-660v175h835v-1330h-175v1155z" />
    <glyph glyph-name="SF020000" unicode="&#x2514;" horiz-adv-x="1460" 
d="M643 534v1330h175v-1155h661v-175h-836z" />
    <glyph glyph-name="SF040000" unicode="&#x2518;" horiz-adv-x="1460" 
d="M817 534h-835v175h660v1155h175v-1330z" />
    <glyph glyph-name="SF080000" unicode="&#x251c;" horiz-adv-x="1460" 
d="M643 -621v2485h175v-1155h661v-175h-661v-1155h-175z" />
    <glyph glyph-name="SF090000" unicode="&#x2524;" horiz-adv-x="1460" 
d="M642 -621v1155h-660v175h660v1155h175v-2485h-175z" />
    <glyph glyph-name="SF060000" unicode="&#x252c;" horiz-adv-x="1460" 
d="M642 534h-660v175h1496v-175h-661v-1155h-175v1155z" />
    <glyph glyph-name="SF070000" unicode="&#x2534;" horiz-adv-x="1460" 
d="M1478 534h-1496v175h660v1155h175v-1155h661v-175z" />
    <glyph glyph-name="SF050000" unicode="&#x253c;" horiz-adv-x="1460" 
d="M642 534h-660v175h660v1155h175v-1155h661v-175h-661v-1155h-175v1155z" />
    <glyph glyph-name="SF430000" unicode="&#x2550;" horiz-adv-x="1460" 
d="M1478 724h-1496v175h1496v-175zM1478 344h-1496v175h1496v-175z" />
    <glyph glyph-name="SF240000" unicode="&#x2551;" horiz-adv-x="1460" 
d="M833 -621v2485h175v-2485h-175zM453 -621v2485h175v-2485h-175z" />
    <glyph glyph-name="SF510000" unicode="&#x2552;" horiz-adv-x="1460" 
d="M643 -621v1520h836v-175h-661v-205h661v-175h-661v-965h-175z" />
    <glyph glyph-name="SF520000" unicode="&#x2553;" horiz-adv-x="1460" 
d="M453 -621v1330h1026v-175h-471v-1155h-175v1140h-205v-1140h-175z" />
    <glyph glyph-name="SF390000" unicode="&#x2554;" horiz-adv-x="1460" 
d="M628 -621h-175v1520h1025v-175h-850v-1345zM1008 344v-965h-175v1140h645v-175h-470z" />
    <glyph glyph-name="SF220000" unicode="&#x2555;" horiz-adv-x="1460" 
d="M642 344h-660v175h660v205h-660v175h835v-1520h-175v965z" />
    <glyph glyph-name="SF210000" unicode="&#x2556;" horiz-adv-x="1460" 
d="M452 -621v1155h-470v175h1025v-1330h-175v1155h-205v-1155h-175z" />
    <glyph glyph-name="SF250000" unicode="&#x2557;" horiz-adv-x="1460" 
d="M832 -621v1345h-850v175h1025v-1520h-175zM452 344h-470v175h645v-1140h-175v965z" />
    <glyph glyph-name="SF500000" unicode="&#x2558;" horiz-adv-x="1460" 
d="M643 344v1520h175v-965h661v-175h-661v-205h661v-175h-836z" />
    <glyph glyph-name="SF490000" unicode="&#x2559;" horiz-adv-x="1460" 
d="M1478 534h-1025v1330h175v-1155h205v1155h175v-1155h470v-175z" />
    <glyph glyph-name="SF380000" unicode="&#x255a;" horiz-adv-x="1460" 
d="M628 1864v-1345h850v-175h-1025v1520h175zM1008 899h470v-175h-645v1140h175v-965z" />
    <glyph glyph-name="SF280000" unicode="&#x255b;" horiz-adv-x="1460" 
d="M817 344h-835v175h660v205h-660v175h660v965h175v-1520z" />
    <glyph glyph-name="SF270000" unicode="&#x255c;" horiz-adv-x="1460" 
d="M1007 534h-1025v175h470v1155h175v-1155h205v1155h175v-1330z" />
    <glyph glyph-name="SF260000" unicode="&#x255d;" horiz-adv-x="1460" 
d="M832 1864h175v-1520h-1025v175h850v1345zM452 899v965h175v-1140h-645v175h470z" />
    <glyph glyph-name="SF360000" unicode="&#x255e;" horiz-adv-x="1460" 
d="M643 -621v2485h175v-965h661v-175h-661v-205h661v-175h-661v-965h-175z" />
    <glyph glyph-name="SF370000" unicode="&#x255f;" horiz-adv-x="1460" 
d="M833 -621v2485h175v-1155h471v-175h-471v-1155h-175zM453 -621v2485h175v-2485h-175z" />
    <glyph glyph-name="SF420000" unicode="&#x2560;" horiz-adv-x="1460" 
d="M453 -621v2485h175v-2485h-175zM833 724v1140h175v-965h471v-175h-646zM833 -621v1140h646v-175h-471v-965h-175z" />
    <glyph glyph-name="SF190000" unicode="&#x2561;" horiz-adv-x="1460" 
d="M642 344h-660v175h660v205h-660v175h660v965h175v-2485h-175v965z" />
    <glyph glyph-name="SF200000" unicode="&#x2562;" horiz-adv-x="1460" 
d="M452 -621v1155h-470v175h470v1155h175v-2485h-175zM832 -621v2485h175v-2485h-175z" />
    <glyph glyph-name="SF230000" unicode="&#x2563;" horiz-adv-x="1460" 
d="M832 -621v2485h175v-2485h-175zM627 1864v-1140h-645v175h470v965h175zM452 344h-470v175h645v-1140h-175v965z" />
    <glyph glyph-name="SF470000" unicode="&#x2564;" horiz-adv-x="1460" 
d="M1478 724h-1496v175h1496v-175zM642 344h-660v175h1496v-175h-661v-965h-175v965z" />
    <glyph glyph-name="SF480000" unicode="&#x2565;" horiz-adv-x="1460" 
d="M452 -621v1155h-470v175h1496v-175h-471v-1155h-175v1140h-205v-1140h-175z" />
    <glyph glyph-name="SF410000" unicode="&#x2566;" horiz-adv-x="1460" 
d="M1478 724h-1496v175h1496v-175zM452 344h-470v175h645v-1140h-175v965zM832 -621v1140h646v-175h-471v-965h-175z" />
    <glyph glyph-name="SF450000" unicode="&#x2567;" horiz-adv-x="1460" 
d="M1478 724h-1496v175h660v965h175v-965h661v-175zM1478 344h-1496v175h1496v-175z" />
    <glyph glyph-name="SF460000" unicode="&#x2568;" horiz-adv-x="1460" 
d="M1478 534h-1496v175h470v1155h175v-1155h205v1155h175v-1155h471v-175z" />
    <glyph glyph-name="SF400000" unicode="&#x2569;" horiz-adv-x="1460" 
d="M627 724h-645v175h470v965h175v-1140zM1478 724h-646v1140h175v-965h471v-175zM1478 344h-1496v175h1496v-175z" />
    <glyph glyph-name="SF540000" unicode="&#x256a;" horiz-adv-x="1460" 
d="M642 344h-660v175h660v205h-660v175h660v965h175v-965h661v-175h-661v-205h661v-175h-661v-965h-175v965z" />
    <glyph glyph-name="SF530000" unicode="&#x256b;" horiz-adv-x="1460" 
d="M452 -621v1155h-470v175h470v1155h175v-1155h205v1155h175v-1155h471v-175h-471v-1155h-175v1155h-205v-1155h-175z" />
    <glyph glyph-name="SF440000" unicode="&#x256c;" horiz-adv-x="1460" 
d="M1008 899h470v-175h-645v1140h175v-965zM452 899v965h175v-1140h-645v175h470zM452 344h-470v175h645v-1140h-175v965zM1008 344v-965h-175v1140h645v-175h-470z" />
    <glyph glyph-name="upblock" unicode="&#x2580;" horiz-adv-x="1460" 
d="M1478 621h-1496v1243h1496v-1243z" />
    <glyph glyph-name="dnblock" unicode="&#x2584;" horiz-adv-x="1460" 
d="M1478 -621h-1496v1242h1496v-1242z" />
    <glyph glyph-name="block" unicode="&#x2588;" horiz-adv-x="1460" 
d="M-18 -621v2485h1496v-2485h-1496z" />
    <glyph glyph-name="lfblock" unicode="&#x258c;" horiz-adv-x="1460" 
d="M-18 -621v2485h748v-2485h-748z" />
    <glyph glyph-name="rtblock" unicode="&#x2590;" horiz-adv-x="1460" 
d="M730 -621v2485h748v-2485h-748z" />
    <glyph glyph-name="ltshade" unicode="&#x2591;" horiz-adv-x="1460" 
d="M107 1864h125v-125h-125v125zM605 1864h125v-125h-125v125zM1104 1864h125v-125h-125v125zM356 1615h125v-125h-125v125zM855 1615h124v-125h-124v125zM1353 1615h125v-125h-125v125zM1104 1366h125v-125h-125v125zM605 1366h125v-125h-125v125zM107 1366h125v-125h-125
v125zM1353 1116h125v-124h-125v124zM855 1116h124v-124h-124v124zM356 1116h125v-124h-125v124zM107 867h125v-125h-125v125zM605 867h125v-125h-125v125zM1104 867h125v-125h-125v125zM1353 618h125v-125h-125v125zM855 618h124v-125h-124v125zM356 618h125v-125h-125v125z
M107 369h125v-125h-125v125zM605 369h125v-125h-125v125zM1104 369h125v-125h-125v125zM356 119h125v-124h-125v124zM855 119h124v-124h-124v124zM1353 119h125v-124h-125v124zM1104 -130h125v-125h-125v125zM605 -130h125v-125h-125v125zM107 -130h125v-125h-125v125z
M356 -379h125v-125h-125v125zM855 -379h124v-125h-124v125zM1353 -379h125v-125h-125v125z" />
    <glyph glyph-name="shade" unicode="&#x2592;" horiz-adv-x="1460" 
d="M107 1864h124v-125h-124v125zM356 1864h124v-125h-124v125zM605 1864h125v-125h-125v125zM854 1864h125v-125h-125v125zM1104 1864h124v-125h-124v125zM1353 1864h124v-125h-124v125zM-18 1615h125v-125h-125v125zM231 1615h125v-125h-125v125zM480 1615h125v-125h-125
v125zM730 1615h124v-125h-124v125zM979 1615h125v-125h-125v125zM1228 1615h125v-125h-125v125zM107 1366h124v-125h-124v125zM356 1366h124v-125h-124v125zM605 1366h125v-125h-125v125zM854 1366h125v-125h-125v125zM1104 1366h124v-125h-124v125zM1353 1366h124v-125
h-124v125zM-18 1116h125v-124h-125v124zM231 1116h125v-124h-125v124zM480 1116h125v-124h-125v124zM730 1116h124v-124h-124v124zM979 1116h125v-124h-125v124zM1228 1116h125v-124h-125v124zM107 867h124v-125h-124v125zM356 867h124v-125h-124v125zM605 867h125v-125
h-125v125zM854 867h125v-125h-125v125zM1104 867h124v-125h-124v125zM1353 867h124v-125h-124v125zM-18 618h125v-125h-125v125zM480 618h125v-125h-125v125zM730 618h124v-125h-124v125zM979 618h125v-125h-125v125zM1228 618h125v-125h-125v125zM231 618h125v-125h-125
v125zM1353 369h124v-125h-124v125zM1104 369h124v-125h-124v125zM854 369h125v-125h-125v125zM605 369h125v-125h-125v125zM356 369h124v-125h-124v125zM107 369h124v-125h-124v125zM-18 119h125v-124h-125v124zM231 119h125v-124h-125v124zM480 119h125v-124h-125v124z
M730 119h124v-124h-124v124zM979 119h125v-124h-125v124zM1228 119h125v-124h-125v124zM1353 -130h124v-125h-124v125zM1104 -130h124v-125h-124v125zM854 -130h125v-125h-125v125zM605 -130h125v-125h-125v125zM356 -130h124v-125h-124v125zM107 -130h124v-125h-124v125z
M-18 -379h125v-125h-125v125zM231 -379h125v-125h-125v125zM480 -379h125v-125h-125v125zM730 -379h124v-125h-124v125zM979 -379h125v-125h-125v125zM1228 -379h125v-125h-125v125z" />
    <glyph glyph-name="dkshade" unicode="&#x2593;" horiz-adv-x="1495" 
d="M1495 1490v-374h-124v-124h124v-374h-124v-125h124v-374h-124v-124h124v-374h-124v-125h124v-124h-1495v373h125v125h-125v374h125v125h-125v373h125v125h-125v374h125v125h-125v373h125v125h124v-125h125v125h124v-125h125v125h125v-125h124v125h125v-125h125v125h124
v-125h125v125h124v-249h-124v-125h124zM125 1615v-125h124v125h-124zM374 1615v-125h124v125h-124zM623 1615v-125h125v125h-125zM872 1615v-125h125v125h-125zM1122 1615v-125h124v125h-124zM1371 1366h-125v-125h125v125zM1122 1366h-125v-125h125v125zM872 1366h-124
v-125h124v125zM623 1366h-125v-125h125v125zM374 1366h-125v-125h125v125zM125 1116v-124h124v124h-124zM374 1116v-124h124v124h-124zM623 1116v-124h125v124h-125zM872 1116v-124h125v124h-125zM1122 1116v-124h124v124h-124zM374 867h-125v-125h125v125zM498 867v-125
h125v125h-125zM748 867v-125h124v125h-124zM997 867v-125h125v125h-125zM1246 867v-125h125v125h-125zM125 618v-125h124v125h-124zM623 618v-125h125v125h-125zM498 493v125h-124v-125h124zM872 618v-125h125v125h-125zM1122 618v-125h124v125h-124zM1371 244v125h-125
v-125h125zM1122 244v125h-125v-125h125zM872 244v125h-124v-125h124zM623 244v125h-125v-125h125zM374 244v125h-125v-125h125zM125 119v-124h124v124h-124zM374 119v-124h124v124h-124zM623 119v-124h125v124h-125zM872 119v-124h125v124h-125zM1122 119v-124h124v124h-124
zM1371 -255v125h-125v-125h125zM1122 -255v125h-125v-125h125zM872 -255v125h-124v-125h124zM623 -255v125h-125v-125h125zM374 -255v125h-125v-125h125zM125 -379v-125h124v125h-124zM374 -379v-125h124v125h-124zM623 -379v-125h125v125h-125zM872 -379v-125h125v125h-125
zM1122 -379v-125h124v125h-124z" />
    <glyph glyph-name="filledbox" unicode="&#x25a0;" horiz-adv-x="1237" 
d="M146 944h944v-944h-944v944z" />
    <glyph glyph-name="filledrect" unicode="&#x25ac;" horiz-adv-x="2048" 
d="M0 703h2047v-386h-2047v386z" />
    <glyph glyph-name="triagup" unicode="&#x25b2;" horiz-adv-x="2027" 
d="M304 0l710 1419l710 -1419h-1420z" />
    <glyph glyph-name="triagrt" unicode="&#x25ba;" horiz-adv-x="2027" 
d="M288 1417l1451 -724l-1451 -724v1448z" />
    <glyph glyph-name="triagdn" unicode="&#x25bc;" horiz-adv-x="2027" 
d="M1724 1388l-710 -1419l-710 1419h1420z" />
    <glyph glyph-name="triaglf" unicode="&#x25c4;" horiz-adv-x="2027" 
d="M1739 1417v-1448l-1451 724z" />
    <glyph glyph-name="circle" unicode="&#x25cb;" 
d="M1055 578q0 -182 -129.5 -311.5t-310.5 -129.5q-183 0 -312 129t-129 312q0 182 129.5 311t310.5 129q183 0 312 -129t129 -311zM979 578q0 150 -107 257t-257 107q-151 0 -258 -107.5t-107 -256.5t107 -257t258 -108q150 0 257 107.5t107 257.5z" />
    <glyph glyph-name="invbullet" unicode="&#x25d8;" 
d="M124 0v980h980v-980h-980zM816 490q0 83 -59 142.5t-143 59.5q-82 0 -142 -59t-60 -143q0 -83 59.5 -142.5t142.5 -59.5q84 0 143 60t59 142z" />
    <glyph glyph-name="invcircle" unicode="&#x25d9;" 
d="M38 0v1155h1155v-1155h-1155zM1056 577q0 181 -129.5 311t-310.5 130q-183 0 -312 -130t-129 -311t129 -310.5t312 -129.5q181 0 310.5 129.5t129.5 310.5zM980 577q0 -150 -107 -257t-257 -107q-151 0 -258 107t-107 257q0 151 107.5 258t257.5 107t257 -106.5
t107 -258.5z" />
    <glyph glyph-name="smileface" unicode="&#x263a;" horiz-adv-x="2091" 
d="M1683 518q0 -262 -187 -449.5t-450 -187.5q-264 0 -451 186.5t-187 450.5q0 263 187.5 450.5t450.5 187.5q264 0 450.5 -186.5t186.5 -451.5z" />
    <glyph glyph-name="invsmileface" unicode="&#x263b;" horiz-adv-x="2155" 
d="M1715 518q0 -262 -187 -449.5t-450 -187.5q-264 0 -451 186.5t-187 450.5q0 263 187.5 450.5t450.5 187.5q264 0 450.5 -186.5t186.5 -451.5zM914 650q0 34 -23.5 57.5t-57.5 23.5q-33 0 -57 -23.5t-24 -57.5q0 -33 24 -57t57 -24q34 0 57.5 24t23.5 57zM1403 650
q0 34 -24 57.5t-57 23.5t-57 -23.5t-24 -57.5q0 -33 24 -57t57 -24t57 24t24 57zM784 313q103 -195 294 -195q190 0 294 195l-63 36q-78 -144 -231 -144t-232 144z" />
    <glyph glyph-name="sun" unicode="&#x263c;" horiz-adv-x="1878" 
d="M902 1621h76v-337q191 -7 350 -140l289 283l52 -53l-286 -286q140 -175 143 -358h336v-69h-336q-14 -190 -143 -348l286 -289l-57 -51l-284 280q-167 -125 -350 -139v-337h-76v337q-203 25 -345 139l-296 -280l-49 51l284 289q-125 153 -144 352h-336v69h336
q14 197 144 349l-284 287l49 57l291 -283q180 130 350 140v337zM1450 699q0 212 -150.5 362t-362.5 150q-211 0 -361.5 -150.5t-150.5 -361.5t150.5 -362t361.5 -151t362 151t151 362z" />
    <glyph glyph-name="female" unicode="&#x2640;" horiz-adv-x="1131" 
d="M591 481v-365h417v-54h-417v-399h-54v399h-418v54h418v365q-81 0 -189.5 51.5t-183.5 167.5t-75 256q0 196 139.5 336t336.5 140q196 0 336 -140t140 -336q0 -185 -127.5 -323.5t-322.5 -151.5zM992 955q0 176 -125 301t-302 125q-176 0 -301.5 -125.5t-125.5 -300.5
q0 -176 125.5 -301.5t301.5 -125.5t301.5 125.5t125.5 301.5z" />
    <glyph glyph-name="male" unicode="&#x2642;" horiz-adv-x="1366" 
d="M1107 1372l29 -10q35 -359 161 -615l-25 -16q-149 188 -222 415l-295 -635q110 -42 201 -162t91 -268q0 -188 -133 -304t-326 -116q-205 0 -345.5 134.5t-140.5 322.5t130.5 316t306.5 128q76 0 170 -33l293 636q-214 -90 -457 -104v27q165 51 255.5 97.5t306.5 186.5z
M531 516q-158 0 -272 -113.5t-114 -268.5q0 -172 116.5 -282.5t274.5 -110.5q162 0 273.5 113.5t111.5 267.5q0 169 -118.5 281.5t-271.5 112.5z" />
    <glyph glyph-name="spade" unicode="&#x2660;" horiz-adv-x="1092" 
d="M547 1231q18 -82 64.5 -169t203.5 -230q122 -111 169.5 -181t47.5 -152q0 -96 -64.5 -160t-155.5 -64q-154 0 -254 190q0 -230 101 -325.5t277 -102.5l7 -37h-793l8 37q182 0 282.5 105t100.5 282v41q-90 -190 -262 -190q-92 0 -155.5 66t-63.5 155q0 150 188 305
q262 215 299 430z" />
    <glyph glyph-name="club" unicode="&#x2663;" horiz-adv-x="1354" 
d="M1103 0h-848l8 34q153 33 219.5 68.5t125 138.5t58.5 228l-1 42q-55 -117 -143.5 -177.5t-183.5 -60.5q-115 0 -196.5 81t-81.5 199q0 111 72.5 193t169.5 82q64 0 163 -51q-67 106 -67 182q0 113 79 192.5t197 79.5t198.5 -79.5t80.5 -187.5q0 -94 -69 -187
q106 53 162 53q105 0 176 -82t71 -191q0 -120 -81 -201.5t-193 -81.5q-78 0 -167 49.5t-165 187.5q4 -157 48 -250.5t122.5 -144.5t237.5 -82z" />
    <glyph glyph-name="heart" unicode="&#x2665;" horiz-adv-x="1210" 
d="M607 -24q-32 122 -92.5 228.5t-275.5 389.5q-101 133 -140 212t-39 163q0 110 74 185.5t183 75.5q206 0 290 -251q34 129 113.5 190.5t171.5 61.5q109 0 183.5 -75t74.5 -177q0 -84 -40 -179t-174 -264q-284 -360 -329 -560z" />
    <glyph glyph-name="diamond" unicode="&#x2666;" horiz-adv-x="1038" 
d="M517 1231q193 -323 461 -627q-52 -52 -214 -265t-247 -363q-101 190 -457 628q324 383 457 627z" />
    <glyph glyph-name="musicalnote" unicode="&#x266a;" horiz-adv-x="1579" 
d="M926 1535h60q164 -100 366 -309t202 -285q0 -16 -20 -44.5t-39 -28.5q-28 0 -63 44q-55 66 -195 190t-242 188l26 -1374q0 -122 -71.5 -193t-217 -131.5t-291.5 -60.5q-197 0 -306 99t-109 228q0 159 162.5 279t372.5 120q192 0 396 -94z" />
    <glyph glyph-name="musicalnotedbl" unicode="&#x266b;" horiz-adv-x="2048" 
d="M832 1195l934 291v-1301q0 -148 -37.5 -221t-125 -121t-200.5 -48q-145 0 -212.5 77t-67.5 186q0 117 90 202t234 85q84 0 200 -50v850l-699 -217v-981q0 -123 -29.5 -203t-121 -136.5t-216.5 -56.5q-121 0 -199 69t-78 192q0 129 93 210.5t230 81.5q95 0 205 -54v1145z
" />
    <glyph glyph-name="undercommaaccent" unicode="&#xf005;" horiz-adv-x="682" 
d="M113 -14q62 4 95 4q117 0 165.5 -46.5t48.5 -108.5q0 -80 -75.5 -148.5t-209.5 -68.5q-83 0 -189 36l53 131q68 -16 108 -16q115 0 115 80q0 48 -73 48q-25 0 -76 -5zM416 -30z" />
    <glyph glyph-name="Euro" unicode="&#x20ac;" horiz-adv-x="1147" 
d="M438 508q135 -289 469 -289q101 0 203 35v-266q-94 -25 -207 -25q-608 0 -758 545h-135l51 164h66q0 46 8 127h-125l51 164h121q103 253 324.5 397.5t497.5 144.5q97 0 165 -16l-77 -248q-36 8 -82 8q-162 0 -301.5 -77t-223.5 -209h519l-52 -164h-532q-12 -49 -12 -84
v-43h507l-51 -164h-426z" />
  </font>
</defs>
</svg>
